Romário, O Cara S01 1080p WEB-DL AAC 5 1 H 264-NACIONAL

The career of Brazilian soccer's most controversial player. From the slums of Rio de Janeiro to world stardom, Romário became one of the greatest strikers of all time.

Genre: Sports

Format : Matroska
Format version : Version 4
File size : 1.18 GiB
Duration : 47 min 3 s
Overall bit rate mode : Variable
Overall bit rate : 3 592 kb/s
Frame rate : 23.976 FPS
Movie name : S01E01 - BLUDV.TO
Encoded date : 2024-05-23 14:44:42 UTC
Writing application : mkvmerge v83.0 ('Circle Of Friends') 64-bit
Writing library : libebml v1.4.5 + libmatroska v1.7.1

Video
ID : 1
Format : AVC
Format/Info : Advanced Video Codec: Format profile : Main@L4
Format settings : CABAC / 4 Ref Frames
Format settings, CABAC : Yes
Format settings, Reference frames : 4 frames
Codec ID : V_MPEG4/ISO/AVC
Duration : 47 min 3 s
Bit rate mode : Variable
Bit rate : 3 364 kb/s
Maximum bit rate : 10.5 Mb/s
Width : 1 920 pixels
Height : 1 080 pixels
Display aspect ratio : 16:9
Frame rate mode : Constant
Frame rate : 23.976 (24000/1001) FPS
Color space : YUV
Chroma subsampling : 4:2:0
Bit depth : 8 bits
Scan type : Progressive
Bits/(Pixel*Frame) : 0.068
Stream size : 1.11 GiB (94%)
Title : PT-BR
Language : Portuguese
Default : Yes
Forced : No
Color range : Limited
Color primaries : BT.709
Transfer characteristics : BT.709
Matrix coefficients : BT.709

Audio
ID : 2
Format : AAC LC
Format/Info : Advanced Audio Codec Low Complexity
Codec ID : A_AAC-2
Duration : 47 min 3 s
Bit rate : 225 kb/s
Channel(s) : 6 channels
Channel layout : C L R Ls Rs LFE
Sampling rate : 48.0 kHz
Frame rate : 46.875 FPS (1024 SPF)
Compression mode : Lossy
Delay relative to video : -21 ms
Stream size : 75.8 MiB (6%)
Title : PT-BR 5.1
Language : Portuguese
Default : Yes
Forced : No

Text #1
ID : 3
Format : UTF-8
Codec ID : S_TEXT/UTF8
Codec ID/Info : UTF-8 Plain Text
Duration : 45 min 56 s
Bit rate : 106 b/s
Frame rate : 0.271 FPS
Count of elements : 747
Stream size : 35.8 KiB (0%)
Title : PT-BR FULL
Language : Portuguese (BR)
Default : No
Forced : No

Text #2
ID : 4
Format : UTF-8
Codec ID : S_TEXT/UTF8
Codec ID/Info : UTF-8 Plain Text
Duration : 42 min 14 s
Bit rate : 18 b/s
Frame rate : 0.052 FPS
Count of elements : 131
Stream size : 5.81 KiB (0%)
Title : PT-BR FORCED
Language : Portuguese (BR)
Default : Yes
Forced : Yes

Text #3
ID : 5
Format : UTF-8
Codec ID : S_TEXT/UTF8
Codec ID/Info : UTF-8 Plain Text
Duration : 46 min 21 s
Bit rate : 104 b/s
Frame rate : 0.288 FPS
Count of elements : 802
Stream size : 35.5 KiB (0%)
Language : English (US)
Default : No
Forced : No

Text #4
ID : 6
Format : UTF-8
Codec ID : S_TEXT/UTF8
Codec ID/Info : UTF-8 Plain Text
Duration : 46 min 21 s
Bit rate : 105 b/s
Frame rate : 0.292 FPS
Count of elements : 812
Stream size : 35.8 KiB (0%)
Title : Latin American
Language : Spanish (Latin America)
Default : No
Forced : No

Files