Hollow Man (2000) (1080p BluRay x265 10-bit SDR DDP 5 1 English-DarQ)

Scientists discover how to make people invisible, but their test subject becomes an insane killer who stalks them.

Year: 2000
Duration: 119 min
Release date: Friday 4th August 2000
Genre: Action, Sci-Fi, Thriller

Rating

5.6/10
(74069 Votes)

0

Your Rating

Stars:
Kevin Bacon, Elisabeth Shue, Josh Brolin, Kim Dickens

Hollow Man (2000)

General
Unique ID : 245823470207633492658159168007581390634 (0xB8EFE0D3B89538C070FD28DBF306D72A)
Complete name : Hollow Man (2000) (1080p BluRay x265 10-bit SDR DDP 5.1 English-DarQ).mkv
Format : Matroska
Format version : Version 4
File size : 5.07 GiB
Duration : 1 h 59 min
Overall bit rate : 6 091 kb/s
Encoded date : UTC 2024-07-02 08:29:34
Writing application : mkvmerge v85.0 ('Shame For You') 64-bit
Writing library : libebml v1.4.5 + libmatroska v1.7.1

Video
ID : 1
Format : HEVC
Format/Info : High Efficiency Video Coding
Format profile : Main 10@L5@Main
Codec ID : V_MPEGH/ISO/HEVC
Duration : 1 h 59 min
Bit rate : 5 319 kb/s
Width : 1 920 pixels
Height : 1 040 pixels
Display aspect ratio : 1.85:1
Frame rate mode : Constant
Frame rate : 23.976 (24000/1001) FPS
Color space : YUV
Chroma subsampling : 4:2:0
Bit depth : 10 bits
Bits/(Pixel*Frame) : 0.111
Stream size : 4.43 GiB (87%)
Writing library : x265 3.6+13+1-726aec126:[Windows][MSVC 1939][64 bit] 10bit
Encoding settings : cpuid=1111039 / frame-threads=3 / numa-pools=10 / wpp / no-pmode / no-pme / no-psnr / no-ssim / log-level=2 / input-csp=1 / input-res=1920x1040 / interlace=0 / total-frames=171552 / level-idc=0 / high-tier=1 / uhd-bd=0 / ref=6 / no-allow-non-conformance / no-repeat-headers / annexb / no-aud / no-eob / no-eos / no-hrd / info / hash=0 / temporal-layers=0 / open-gop / min-keyint=23 / keyint=250 / gop-lookahead=0 / bframes=4 / b-adapt=2 / b-pyramid / bframe-bias=0 / rc-lookahead=25 / lookahead-slices=4 / scenecut=40 / no-hist-scenecut / radl=0 / no-splice / no-intra-refresh / ctu=64 / min-cu-size=8 / rect / no-amp / max-tu-size=32 / tu-inter-depth=1 / tu-intra-depth=1 / limit-tu=0 / rdoq-level=2 / dynamic-rd=0.00 / no-ssim-rd / signhide / no-tskip / nr-intra=0 / nr-inter=0 / no-constrained-intra / strong-intra-smoothing / max-merge=3 / limit-refs=3 / limit-modes / me=3 / subme=5 / merange=57 / temporal-mvp / no-frame-dup / no-hme / weightp / no-weightb / no-analyze-src-pics / deblock=0:0 / sao / no-sao-non-deblock / rd=4 / selective-sao=4 / no-early-skip / rskip / no-fast-intra / no-tskip-fast / no-cu-lossless / no-b-intra / no-splitrd-skip / rdpenalty=0 / psy-rd=1.75 / psy-rdoq=1.00 / no-rd-refine / no-lossless / cbqpoffs=0 / crqpoffs=0 / rc=crf / crf=16.0 / qcomp=0.60 / qpstep=4 / stats-write=0 / stats-read=0 / ipratio=1.40 / pbratio=1.30 / aq-mode=3 / aq-strength=0.65 / aq-bias-strength=1.00 / cutree / zone-count=0 / no-strict-cbr / qg-size=32 / no-rc-grain / qpmax=69 / qpmin=0 / no-const-vbv / sar=0 / overscan=0 / videoformat=5 / range=0 / colorprim=2 / transfer=2 / colormatrix=2 / chromaloc=0 / display-window=0 / cll=0,0 / min-luma=0 / max-luma=1023 / log2-max-poc-lsb=8 / vui-timing-info / vui-hrd-info / slices=1 / no-opt-qp-pps / no-opt-ref-list-length-pps / no-multi-pass-opt-rps / scenecut-bias=0.05 / no-opt-cu-delta-qp / no-aq-motion / no-hdr10 / no-hdr10-opt / no-dhdr10-opt / no-idr-recovery-sei / analysis-reuse-level=0 / analysis-save-reuse-level=0 / analysis-load-reuse-level=0 / scale-factor=0 / refine-intra=0 / refine-inter=0 / refine-mv=1 / refine-ctu-distortion=0 / no-limit-sao / ctu-info=0 / no-lowpass-dct / refine-analysis-type=0 / copy-pic=1 / max-ausize-factor=1.0 / no-dynamic-refine / no-single-sei / no-hevc-aq / no-svt / no-field / qp-adaptation-range=1.00 / scenecut-aware-qp=0 / conformance-window-offsets / right=0 / bottom=0 / decoder-max-rate=0 / no-vbv-live-multi-pass / no-mcstf / no-sbrc
Default : Yes
Forced : No

Audio
ID : 2
Format : E-AC-3
Format/Info : Enhanced AC-3
Commercial name : Dolby Digital Plus
Codec ID : A_EAC3
Duration : 1 h 59 min
Bit rate mode : Constant
Bit rate : 768 kb/s
Channel(s) : 6 channels
Channel layout : L R C LFE Ls Rs
Sampling rate : 48.0 kHz
Frame rate : 31.250 FPS (1536 SPF)
Compression mode : Lossy
Stream size : 655 MiB (13%)
Language : English
Service kind : Complete Main
Default : No
Forced : No

Text #1
ID : 3
Format : UTF-8
Codec ID : S_TEXT/UTF8
Codec ID/Info : UTF-8 Plain Text
Duration : 1 h 48 min
Bit rate : 42 b/s
Count of elements : 1069
Stream size : 33.6 KiB (0%)
Language : English
Default : Yes
Forced : No

Text #2
ID : 4
Format : UTF-8
Codec ID : S_TEXT/UTF8
Codec ID/Info : UTF-8 Plain Text
Duration : 1 h 51 min
Bit rate : 50 b/s
Count of elements : 1657
Stream size : 41.1 KiB (0%)
Title : SDH
Language : English
Default : Yes
Forced : No

Text #3
ID : 5
Format : UTF-8
Codec ID : S_TEXT/UTF8
Codec ID/Info : UTF-8 Plain Text
Duration : 1 h 48 min
Bit rate : 59 b/s
Count of elements : 1046
Stream size : 47.1 KiB (0%)
Language : Arabic
Default : Yes
Forced : No

Text #4
ID : 6
Format : UTF-8
Codec ID : S_TEXT/UTF8
Codec ID/Info : UTF-8 Plain Text
Duration : 1 h 50 min
Bit rate : 67 b/s
Count of elements : 1085
Stream size : 54.5 KiB (0%)
Language : Bulgarian
Default : Yes
Forced : No

Text #5
ID : 7
Format : UTF-8
Codec ID : S_TEXT/UTF8
Codec ID/Info : UTF-8 Plain Text
Duration : 1 h 48 min
Bit rate : 40 b/s
Count of elements : 1072
Stream size : 31.7 KiB (0%)
Language : Hungarian
Default : Yes
Forced : No

Text #6
ID : 8
Format : UTF-8
Codec ID : S_TEXT/UTF8
Codec ID/Info : UTF-8 Plain Text
Duration : 1 h 48 min
Bit rate : 38 b/s
Count of elements : 1080
Stream size : 30.4 KiB (0%)
Language : Czech
Default : Yes
Forced : No

Text #7
ID : 9
Format : UTF-8
Codec ID : S_TEXT/UTF8
Codec ID/Info : UTF-8 Plain Text
Duration : 1 h 48 min
Bit rate : 39 b/s
Count of elements : 893
Stream size : 31.1 KiB (0%)
Language : Danish
Default : Yes
Forced : No

Text #8
ID : 10
Format : UTF-8
Codec ID : S_TEXT/UTF8
Codec ID/Info : UTF-8 Plain Text
Duration : 1 h 48 min
Bit rate : 37 b/s
Count of elements : 874
Stream size : 29.5 KiB (0%)
Language : Dutch
Default : Yes
Forced : No

Text #9
ID : 11
Format : UTF-8
Codec ID : S_TEXT/UTF8
Codec ID/Info : UTF-8 Plain Text
Duration : 1 h 48 min
Bit rate : 41 b/s
Count of elements : 1082
Stream size : 33.0 KiB (0%)
Language : Finnish
Default : Yes
Forced : No

Text #10
ID : 12
Format : UTF-8
Codec ID : S_TEXT/UTF8
Codec ID/Info : UTF-8 Plain Text
Duration : 1 h 48 min
Bit rate : 64 b/s
Count of elements : 1075
Stream size : 51.1 KiB (0%)
Language : Greek
Default : Yes
Forced : No

Text #11
ID : 13
Format : UTF-8
Codec ID : S_TEXT/UTF8
Codec ID/Info : UTF-8 Plain Text
Duration : 1 h 48 min
Bit rate : 56 b/s
Count of elements : 1082
Stream size : 44.8 KiB (0%)
Language : Hebrew
Default : Yes
Forced : No

Text #12
ID : 14
Format : UTF-8
Codec ID : S_TEXT/UTF8
Codec ID/Info : UTF-8 Plain Text
Duration : 1 h 48 min
Bit rate : 108 b/s
Count of elements : 1081
Stream size : 85.9 KiB (0%)
Language : Hindi
Default : Yes
Forced : No

Text #13
ID : 15
Format : UTF-8
Codec ID : S_TEXT/UTF8
Codec ID/Info : UTF-8 Plain Text
Duration : 1 h 48 min
Bit rate : 31 b/s
Count of elements : 1080
Stream size : 25.2 KiB (0%)
Language : Hungarian
Default : Yes
Forced : No

Text #14
ID : 16
Format : UTF-8
Codec ID : S_TEXT/UTF8
Codec ID/Info : UTF-8 Plain Text
Duration : 1 h 48 min
Bit rate : 45 b/s
Count of elements : 1081
Stream size : 36.2 KiB (0%)
Language : Icelandic
Default : Yes
Forced : No

Text #15
ID : 17
Format : UTF-8
Codec ID : S_TEXT/UTF8
Codec ID/Info : UTF-8 Plain Text
Duration : 1 h 48 min
Bit rate : 39 b/s
Count of elements : 958
Stream size : 31.0 KiB (0%)
Language : Norwegian
Default : Yes
Forced : No

Text #16
ID : 18
Format : UTF-8
Codec ID : S_TEXT/UTF8
Codec ID/Info : UTF-8 Plain Text
Duration : 1 h 48 min
Bit rate : 30 b/s
Count of elements : 1079
Stream size : 23.9 KiB (0%)
Language : Polish
Default : Yes
Forced : No

Text #17
ID : 19
Format : UTF-8
Codec ID : S_TEXT/UTF8
Codec ID/Info : UTF-8 Plain Text
Duration : 1 h 50 min
Bit rate : 42 b/s
Count of elements : 1081
Stream size : 34.1 KiB (0%)
Language : Romanian
Default : Yes
Forced : No

Text #18
ID : 20
Format : UTF-8
Codec ID : S_TEXT/UTF8
Codec ID/Info : UTF-8 Plain Text
Duration : 1 h 48 min
Bit rate : 36 b/s
Count of elements : 1081
Stream size : 28.7 KiB (0%)
Language : Slovak
Default : Yes
Forced : No

Text #19
ID : 21
Format : UTF-8
Codec ID : S_TEXT/UTF8
Codec ID/Info : UTF-8 Plain Text
Duration : 1 h 48 min
Bit rate : 36 b/s
Count of elements : 842
Stream size : 29.2 KiB (0%)
Language : Swedish
Default : Yes
Forced : No

Text #20
ID : 22
Format : UTF-8
Codec ID : S_TEXT/UTF8
Codec ID/Info : UTF-8 Plain Text
Duration : 1 h 48 min
Bit rate : 39 b/s
Count of elements : 1069
Stream size : 31.1 KiB (0%)
Language : Turkish
Default : Yes
Forced : No

Text #21
ID : 23
Format : UTF-8
Codec ID : S_TEXT/UTF8
Codec ID/Info : UTF-8 Plain Text
Duration : 1 h 50 min
Bit rate : 73 b/s
Count of elements : 1043
Stream size : 59.3 KiB (0%)
Language : Russian
Default : Yes
Forced : No

Text #22
ID : 24
Format : UTF-8
Codec ID : S_TEXT/UTF8
Codec ID/Info : UTF-8 Plain Text
Duration : 1 h 50 min
Bit rate : 40 b/s
Count of elements : 942
Stream size : 33.3 KiB (0%)
Language : Portuguese
Default : Yes
Forced : No

Text #23
ID : 25
Format : UTF-8
Codec ID : S_TEXT/UTF8
Codec ID/Info : UTF-8 Plain Text
Duration : 1 h 48 min
Bit rate : 37 b/s
Count of elements : 1082
Stream size : 30.0 KiB (0%)
Language : Chinese
Default : Yes
Forced : No

Menu
00:00:00.000 : en:Start
00:08:56.494 : en:"e;I Cracked the Reversion"e;
00:12:55.149 : en:Isabelle
00:22:41.068 : en:The Reversion
00:28:52.105 : en:Past Imperfect
00:36:02.243 : en:Committee Review
00:47:28.262 : en:Phase Iii Volunteer
00:50:47.627 : en:Superhero Joke
00:59:09.963 : en:Bio-Quantum Phase Shift
01:09:29.874 : en:Not Fade Away
01:12:29.970 : en:Sarah's Late Shift
01:23:45.979 : en:Reversion Failure
01:29:45.797 : en:Plastic Man
01:36:08.971 : en:Going Out
01:42:31.937 : en:Good-Neighbour Policy
01:46:36.473 : en:Sebastian Returns

Report created by : MediaInfoLib - v21.09

Files