Kota Factory S02 2160p NF WEB-DL HIN-ENG-TAM-TEL DDP5 1 HEVC-Saon

Kota Factory captures the life of IIT and Medical exam aspirants as they face both Competition and Life.

Genre: Drama, Comedy

General
Unique ID : 243712738266848695169674005216028467794 (0xB7595DB52B539CA98C890CB00B872252)
Complete name : C:\Users\tmanc\Downloads\Kota.Factory.S02.2160p.NF.WEB-DL.HIN-ENG-TAM-TEL.DDP5.1.HEVC-Saon\Kota.Factory.S02E01.Reasoning.2160p.NF.WEB-DL.HIN-ENG-TAM-TEL.DDP5.1.HEVC-Saon.mkv
Format : Matroska
Format version : Version 4
File size : 4.54 GiB
Duration : 44 min 14 s
Overall bit rate : 14.7 Mb/s
Frame rate : 25.000 FPS
Movie name : Downloaded From OlaMovies.Top
Encoded date : 2024-06-20 15:41:56 UTC
Writing application : mkvmerge v84.0 ('Sleeper') 64-bit
Writing library : libebml v1.4.5 + libmatroska v1.7.1
Cover : Yes
Attachments : cover.png

Video
ID : 1
Format : HEVC
Format/Info : High Efficiency Video Coding
Format profile : Main 10@L5@Main
Codec ID : V_MPEGH/ISO/HEVC
Duration : 44 min 14 s
Bit rate : 11.4 Mb/s
Width : 3 840 pixels
Height : 2 160 pixels
Display aspect ratio : 16:9
Frame rate mode : Constant
Frame rate : 25.000 FPS
Color space : YUV
Chroma subsampling : 4:2:0
Bit depth : 10 bits
Bits/(Pixel*Frame) : 0.055
Stream size : 3.51 GiB (77%)
Language : Hindi
Default : Yes
Forced : No
Color range : Limited
Color primaries : BT.709
Transfer characteristics : BT.709
Matrix coefficients : BT.709

Audio #1
ID : 2
Format : E-AC-3
Format/Info : Enhanced AC-3
Commercial name : Dolby Digital Plus
Codec ID : A_EAC3
Duration : 44 min 11 s
Bit rate mode : Constant
Bit rate : 640 kb/s
Channel(s) : 6 channels
Channel layout : L R C LFE Ls Rs
Sampling rate : 48.0 kHz
Frame rate : 31.250 FPS (1536 SPF)
Compression mode : Lossy
Stream size : 202 MiB (4%)
Title : Hindi - Audio Description
Language : Hindi
Service kind : Complete Main
Default : No
Forced : No
Dialog Normalization : -27 dB
compr : -0.28 dB
dialnorm_Average : -27 dB
dialnorm_Minimum : -27 dB
dialnorm_Maximum : -27 dB

Audio #2
ID : 3
Format : E-AC-3
Format/Info : Enhanced AC-3
Commercial name : Dolby Digital Plus
Codec ID : A_EAC3
Duration : 44 min 11 s
Bit rate mode : Constant
Bit rate : 640 kb/s
Channel(s) : 6 channels
Channel layout : L R C LFE Ls Rs
Sampling rate : 48.0 kHz
Frame rate : 31.250 FPS (1536 SPF)
Compression mode : Lossy
Stream size : 202 MiB (4%)
Title : Tamil
Language : Tamil
Service kind : Complete Main
Default : No
Forced : No
Dialog Normalization : -27 dB
compr : -0.28 dB
dialnorm_Average : -27 dB
dialnorm_Minimum : -27 dB
dialnorm_Maximum : -27 dB

Audio #3
ID : 4
Format : E-AC-3
Format/Info : Enhanced AC-3
Commercial name : Dolby Digital Plus
Codec ID : A_EAC3
Duration : 44 min 11 s
Bit rate mode : Constant
Bit rate : 640 kb/s
Channel(s) : 6 channels
Channel layout : L R C LFE Ls Rs
Sampling rate : 48.0 kHz
Frame rate : 31.250 FPS (1536 SPF)
Compression mode : Lossy
Stream size : 202 MiB (4%)
Title : Telugu
Language : Telugu
Service kind : Complete Main
Default : No
Forced : No
Dialog Normalization : -27 dB
compr : -0.28 dB
dialnorm_Average : -27 dB
dialnorm_Minimum : -27 dB
dialnorm_Maximum : -27 dB

Audio #4
ID : 5
Format : E-AC-3
Format/Info : Enhanced AC-3
Commercial name : Dolby Digital Plus
Codec ID : A_EAC3
Duration : 44 min 14 s
Bit rate mode : Constant
Bit rate : 640 kb/s
Channel(s) : 6 channels
Channel layout : L R C LFE Ls Rs
Sampling rate : 48.0 kHz
Frame rate : 31.250 FPS (1536 SPF)
Compression mode : Lossy
Stream size : 203 MiB (4%)
Language : English
Service kind : Complete Main
Default : Yes
Forced : No
Dialog Normalization : -28 dB
compr : -0.28 dB
dialnorm_Average : -28 dB
dialnorm_Minimum : -28 dB
dialnorm_Maximum : -28 dB

Audio #5
ID : 6
Format : E-AC-3 JOC
Format/Info : Enhanced AC-3 with Joint Object Coding
Commercial name : Dolby Digital Plus with Dolby Atmos
Codec ID : A_EAC3
Duration : 44 min 14 s
Bit rate mode : Constant
Bit rate : 768 kb/s
Channel(s) : 6 channels
Channel layout : L R C LFE Ls Rs
Sampling rate : 48.0 kHz
Frame rate : 31.250 FPS (1536 SPF)
Compression mode : Lossy
Stream size : 243 MiB (5%)
Language : Hindi
Service kind : Complete Main
Default : No
Forced : No
Complexity index : 16
Number of dynamic objects : 15
Bed channel count : 1 channel
Bed channel configuration : LFE
Dialog Normalization : -25 dB
compr : -0.28 dB
dialnorm_Average : -25 dB
dialnorm_Minimum : -25 dB
dialnorm_Maximum : -25 dB

Text #1
ID : 7
Format : UTF-8
Codec ID : S_TEXT/UTF8
Codec ID/Info : UTF-8 Plain Text
Duration : 43 min 54 s
Bit rate : 190 b/s
Frame rate : 0.268 FPS
Count of elements : 706
Stream size : 61.3 KiB (0%)
Title : SDH
Language : Hindi
Default : No
Forced : No

Text #2
ID : 8
Format : UTF-8
Codec ID : S_TEXT/UTF8
Codec ID/Info : UTF-8 Plain Text
Duration : 39 min 43 s
Bit rate : 3 b/s
Frame rate : 0.018 FPS
Count of elements : 42
Stream size : 1.12 KiB (0%)
Title : Forced
Language : English
Default : Yes
Forced : Yes

Text #3
ID : 9
Format : UTF-8
Codec ID : S_TEXT/UTF8
Codec ID/Info : UTF-8 Plain Text
Duration : 39 min 53 s
Bit rate : 72 b/s
Frame rate : 0.282 FPS
Count of elements : 675
Stream size : 21.1 KiB (0%)
Language : English
Default : No
Forced : No

General
Unique ID : 245961184815310885156074208830508612718 (0xB90A66AE71354E9E26A21BEDF3B9BC6E)
Complete name : C:\Users\tmanc\Downloads\Kota.Factory.S02.2160p.NF.WEB-DL.HIN-ENG-TAM-TEL.DDP5.1.HEVC-Saon\Kota.Factory.S02E02.Control.System.2160p.NF.WEB-DL.HIN-ENG-TAM-TEL.DDP5.1.HEVC-Saon.mkv
Format : Matroska
Format version : Version 4
File size : 4.62 GiB
Duration : 44 min 14 s
Overall bit rate : 14.9 Mb/s
Frame rate : 25.000 FPS
Movie name : Downloaded From OlaMovies.Top
Encoded date : 2024-06-20 15:41:49 UTC
Writing application : mkvmerge v84.0 ('Sleeper') 64-bit
Writing library : libebml v1.4.5 + libmatroska v1.7.1
Cover : Yes
Attachments : cover.png

Video
ID : 1
Format : HEVC
Format/Info : High Efficiency Video Coding
Format profile : Main 10@L5@Main
Codec ID : V_MPEGH/ISO/HEVC
Duration : 44 min 14 s
Bit rate : 11.6 Mb/s
Width : 3 840 pixels
Height : 2 160 pixels
Display aspect ratio : 16:9
Frame rate mode : Constant
Frame rate : 25.000 FPS
Color space : YUV
Chroma subsampling : 4:2:0
Bit depth : 10 bits
Bits/(Pixel*Frame) : 0.056
Stream size : 3.59 GiB (78%)
Language : Hindi
Default : Yes
Forced : No
Color range : Limited
Color primaries : BT.709
Transfer characteristics : BT.709
Matrix coefficients : BT.709

Audio #1
ID : 2
Format : E-AC-3
Format/Info : Enhanced AC-3
Commercial name : Dolby Digital Plus
Codec ID : A_EAC3
Duration : 44 min 11 s
Bit rate mode : Constant
Bit rate : 640 kb/s
Channel(s) : 6 channels
Channel layout : L R C LFE Ls Rs
Sampling rate : 48.0 kHz
Frame rate : 31.250 FPS (1536 SPF)
Compression mode : Lossy
Stream size : 202 MiB (4%)
Title : Hindi - Audio Description
Language : Hindi
Service kind : Complete Main
Default : No
Forced : No
Dialog Normalization : -27 dB
compr : -0.28 dB
dialnorm_Average : -27 dB
dialnorm_Minimum : -27 dB
dialnorm_Maximum : -27 dB

Audio #2
ID : 3
Format : E-AC-3
Format/Info : Enhanced AC-3
Commercial name : Dolby Digital Plus
Codec ID : A_EAC3
Duration : 44 min 11 s
Bit rate mode : Constant
Bit rate : 640 kb/s
Channel(s) : 6 channels
Channel layout : L R C LFE Ls Rs
Sampling rate : 48.0 kHz
Frame rate : 31.250 FPS (1536 SPF)
Compression mode : Lossy
Stream size : 202 MiB (4%)
Title : Tamil
Language : Tamil
Service kind : Complete Main
Default : No
Forced : No
Dialog Normalization : -27 dB
compr : -0.28 dB
dialnorm_Average : -27 dB
dialnorm_Minimum : -27 dB
dialnorm_Maximum : -27 dB

Audio #3
ID : 4
Format : E-AC-3
Format/Info : Enhanced AC-3
Commercial name : Dolby Digital Plus
Codec ID : A_EAC3
Duration : 44 min 11 s
Bit rate mode : Constant
Bit rate : 640 kb/s
Channel(s) : 6 channels
Channel layout : L R C LFE Ls Rs
Sampling rate : 48.0 kHz
Frame rate : 31.250 FPS (1536 SPF)
Compression mode : Lossy
Stream size : 202 MiB (4%)
Title : Telugu
Language : Telugu
Service kind : Complete Main
Default : No
Forced : No
Dialog Normalization : -27 dB
compr : -0.28 dB
dialnorm_Average : -27 dB
dialnorm_Minimum : -27 dB
dialnorm_Maximum : -27 dB

Audio #4
ID : 5
Format : E-AC-3
Format/Info : Enhanced AC-3
Commercial name : Dolby Digital Plus
Codec ID : A_EAC3
Duration : 44 min 14 s
Bit rate mode : Constant
Bit rate : 640 kb/s
Channel(s) : 6 channels
Channel layout : L R C LFE Ls Rs
Sampling rate : 48.0 kHz
Frame rate : 31.250 FPS (1536 SPF)
Compression mode : Lossy
Stream size : 203 MiB (4%)
Language : English
Service kind : Complete Main
Default : Yes
Forced : No
Dialog Normalization : -29 dB
compr : -0.28 dB
dialnorm_Average : -29 dB
dialnorm_Minimum : -29 dB
dialnorm_Maximum : -29 dB

Audio #5
ID : 6
Format : E-AC-3 JOC
Format/Info : Enhanced AC-3 with Joint Object Coding
Commercial name : Dolby Digital Plus with Dolby Atmos
Codec ID : A_EAC3
Duration : 44 min 14 s
Bit rate mode : Constant
Bit rate : 768 kb/s
Channel(s) : 6 channels
Channel layout : L R C LFE Ls Rs
Sampling rate : 48.0 kHz
Frame rate : 31.250 FPS (1536 SPF)
Compression mode : Lossy
Stream size : 243 MiB (5%)
Language : Hindi
Service kind : Complete Main
Default : No
Forced : No
Complexity index : 16
Number of dynamic objects : 15
Bed channel count : 1 channel
Bed channel configuration : LFE
Dialog Normalization : -28 dB
compr : -0.28 dB
dialnorm_Average : -28 dB
dialnorm_Minimum : -28 dB
dialnorm_Maximum : -28 dB

Text #1
ID : 7
Format : UTF-8
Codec ID : S_TEXT/UTF8
Codec ID/Info : UTF-8 Plain Text
Duration : 43 min 54 s
Bit rate : 171 b/s
Frame rate : 0.263 FPS
Count of elements : 693
Stream size : 55.2 KiB (0%)
Title : SDH
Language : Hindi
Default : No
Forced : No

Text #2
ID : 8
Format : UTF-8
Codec ID : S_TEXT/UTF8
Codec ID/Info : UTF-8 Plain Text
Duration : 33 min 40 s
Bit rate : 5 b/s
Frame rate : 0.027 FPS
Count of elements : 54
Stream size : 1.45 KiB (0%)
Title : Forced
Language : English
Default : Yes
Forced : Yes

Text #3
ID : 9
Format : UTF-8
Codec ID : S_TEXT/UTF8
Codec ID/Info : UTF-8 Plain Text
Duration : 42 min 9 s
Bit rate : 65 b/s
Frame rate : 0.267 FPS
Count of elements : 675
Stream size : 20.2 KiB (0%)
Language : English
Default : No
Forced : No

General
Unique ID : 113800655732161016617871914522374881822 (0x559D3584BAD92B7B1654DC432FACC21E)
Complete name : C:\Users\tmanc\Downloads\Kota.Factory.S02.2160p.NF.WEB-DL.HIN-ENG-TAM-TEL.DDP5.1.HEVC-Saon\Kota.Factory.S02E03.Atmospheric.Pressure.2160p.NF.WEB-DL.HIN-ENG-TAM-TEL.DDP5.1.HEVC-Saon.mkv
Format : Matroska
Format version : Version 4
File size : 3.09 GiB
Duration : 31 min 16 s
Overall bit rate : 14.2 Mb/s
Frame rate : 25.000 FPS
Movie name : Downloaded From OlaMovies.Top
Encoded date : 2024-06-20 15:41:43 UTC
Writing application : mkvmerge v84.0 ('Sleeper') 64-bit
Writing library : libebml v1.4.5 + libmatroska v1.7.1
Cover : Yes
Attachments : cover.png

Video
ID : 1
Format : HEVC
Format/Info : High Efficiency Video Coding
Format profile : Main 10@L5@Main
Codec ID : V_MPEGH/ISO/HEVC
Duration : 31 min 16 s
Bit rate : 11.0 Mb/s
Width : 3 840 pixels
Height : 2 160 pixels
Display aspect ratio : 16:9
Frame rate mode : Constant
Frame rate : 25.000 FPS
Color space : YUV
Chroma subsampling : 4:2:0
Bit depth : 10 bits
Bits/(Pixel*Frame) : 0.053
Stream size : 2.41 GiB (78%)
Language : Hindi
Default : Yes
Forced : No
Color range : Limited
Color primaries : BT.709
Transfer characteristics : BT.709
Matrix coefficients : BT.709

Audio #1
ID : 2
Format : E-AC-3
Format/Info : Enhanced AC-3
Commercial name : Dolby Digital Plus
Codec ID : A_EAC3
Duration : 31 min 13 s
Bit rate mode : Constant
Bit rate : 640 kb/s
Channel(s) : 6 channels
Channel layout : L R C LFE Ls Rs
Sampling rate : 48.0 kHz
Frame rate : 31.250 FPS (1536 SPF)
Compression mode : Lossy
Stream size : 143 MiB (5%)
Title : Hindi - Audio Description
Language : Hindi
Service kind : Complete Main
Default : No
Forced : No
Dialog Normalization : -27 dB
compr : -0.28 dB
dialnorm_Average : -27 dB
dialnorm_Minimum : -27 dB
dialnorm_Maximum : -27 dB

Audio #2
ID : 3
Format : E-AC-3
Format/Info : Enhanced AC-3
Commercial name : Dolby Digital Plus
Codec ID : A_EAC3
Duration : 31 min 13 s
Bit rate mode : Constant
Bit rate : 640 kb/s
Channel(s) : 6 channels
Channel layout : L R C LFE Ls Rs
Sampling rate : 48.0 kHz
Frame rate : 31.250 FPS (1536 SPF)
Compression mode : Lossy
Stream size : 143 MiB (5%)
Title : Tamil
Language : Tamil
Service kind : Complete Main
Default : No
Forced : No
Dialog Normalization : -27 dB
compr : -0.28 dB
dialnorm_Average : -27 dB
dialnorm_Minimum : -27 dB
dialnorm_Maximum : -27 dB

Audio #3
ID : 4
Format : E-AC-3
Format/Info : Enhanced AC-3
Commercial name : Dolby Digital Plus
Codec ID : A_EAC3
Duration : 31 min 13 s
Bit rate mode : Constant
Bit rate : 640 kb/s
Channel(s) : 6 channels
Channel layout : L R C LFE Ls Rs
Sampling rate : 48.0 kHz
Frame rate : 31.250 FPS (1536 SPF)
Compression mode : Lossy
Stream size : 143 MiB (5%)
Title : Telugu
Language : Telugu
Service kind : Complete Main
Default : No
Forced : No
Dialog Normalization : -27 dB
compr : -0.28 dB
dialnorm_Average : -27 dB
dialnorm_Minimum : -27 dB
dialnorm_Maximum : -27 dB

Audio #4
ID : 5
Format : E-AC-3
Format/Info : Enhanced AC-3
Commercial name : Dolby Digital Plus
Codec ID : A_EAC3
Duration : 31 min 16 s
Bit rate mode : Constant
Bit rate : 448 kb/s
Channel(s) : 6 channels
Channel layout : L R C LFE Ls Rs
Sampling rate : 48.0 kHz
Frame rate : 31.250 FPS (1536 SPF)
Compression mode : Lossy
Stream size : 100 MiB (3%)
Language : English
Service kind : Complete Main
Default : Yes
Forced : No
Dialog Normalization : -29 dB
compr : -0.28 dB
dialnorm_Average : -29 dB
dialnorm_Minimum : -29 dB
dialnorm_Maximum : -29 dB

Audio #5
ID : 6
Format : E-AC-3 JOC
Format/Info : Enhanced AC-3 with Joint Object Coding
Commercial name : Dolby Digital Plus with Dolby Atmos
Codec ID : A_EAC3
Duration : 31 min 16 s
Bit rate mode : Constant
Bit rate : 768 kb/s
Channel(s) : 6 channels
Channel layout : L R C LFE Ls Rs
Sampling rate : 48.0 kHz
Frame rate : 31.250 FPS (1536 SPF)
Compression mode : Lossy
Stream size : 172 MiB (5%)
Language : Hindi
Service kind : Complete Main
Default : No
Forced : No
Complexity index : 16
Number of dynamic objects : 15
Bed channel count : 1 channel
Bed channel configuration : LFE
Dialog Normalization : -27 dB
compr : -0.28 dB
dialnorm_Average : -27 dB
dialnorm_Minimum : -27 dB
dialnorm_Maximum : -27 dB

Text #1
ID : 7
Format : UTF-8
Codec ID : S_TEXT/UTF8
Codec ID/Info : UTF-8 Plain Text
Duration : 30 min 56 s
Bit rate : 191 b/s
Frame rate : 0.274 FPS
Count of elements : 508
Stream size : 43.5 KiB (0%)
Title : SDH
Language : Hindi
Default : No
Forced : No

Text #2
ID : 8
Format : UTF-8
Codec ID : S_TEXT/UTF8
Codec ID/Info : UTF-8 Plain Text
Duration : 19 min 53 s
Bit rate : 0 b/s
Frame rate : 0.003 FPS
Count of elements : 3
Stream size : 79.0 Bytes (0%)
Title : Forced
Language : English
Default : Yes
Forced : Yes

Text #3
ID : 9
Format : UTF-8
Codec ID : S_TEXT/UTF8
Codec ID/Info : UTF-8 Plain Text
Duration : 28 min 40 s
Bit rate : 77 b/s
Frame rate : 0.289 FPS
Count of elements : 498
Stream size : 16.3 KiB (0%)
Language : English
Default : No
Forced : No

General
Unique ID : 258332131732457016994251929719568776280 (0xC258F57494073BD639C7EAFF288ABC58)
Complete name : C:\Users\tmanc\Downloads\Kota.Factory.S02.2160p.NF.WEB-DL.HIN-ENG-TAM-TEL.DDP5.1.HEVC-Saon\Kota.Factory.S02E04.Repair.&.Maintenance.2160p.NF.WEB-DL.HIN-ENG-TAM-TEL.DDP5.1.HEVC-Saon.mkv
Format : Matroska
Format version : Version 4
File size : 3.90 GiB
Duration : 38 min 12 s
Overall bit rate : 14.6 Mb/s
Frame rate : 25.000 FPS
Movie name : Downloaded From OlaMovies.Top
Encoded date : 2024-06-20 15:42:11 UTC
Writing application : mkvmerge v84.0 ('Sleeper') 64-bit
Writing library : libebml v1.4.5 + libmatroska v1.7.1
Cover : Yes
Attachments : cover.png

Video
ID : 1
Format : HEVC
Format/Info : High Efficiency Video Coding
Format profile : Main 10@L5@Main
Codec ID : V_MPEGH/ISO/HEVC
Duration : 38 min 12 s
Bit rate : 11.5 Mb/s
Width : 3 840 pixels
Height : 2 160 pixels
Display aspect ratio : 16:9
Frame rate mode : Constant
Frame rate : 25.000 FPS
Color space : YUV
Chroma subsampling : 4:2:0
Bit depth : 10 bits
Bits/(Pixel*Frame) : 0.055
Stream size : 3.06 GiB (79%)
Language : Hindi
Default : Yes
Forced : No
Color range : Limited
Color primaries : BT.709
Transfer characteristics : BT.709
Matrix coefficients : BT.709

Audio #1
ID : 2
Format : E-AC-3
Format/Info : Enhanced AC-3
Commercial name : Dolby Digital Plus
Codec ID : A_EAC3
Duration : 38 min 9 s
Bit rate mode : Constant
Bit rate : 640 kb/s
Channel(s) : 6 channels
Channel layout : L R C LFE Ls Rs
Sampling rate : 48.0 kHz
Frame rate : 31.250 FPS (1536 SPF)
Compression mode : Lossy
Stream size : 175 MiB (4%)
Title : Hindi - Audio Description
Language : Hindi
Service kind : Complete Main
Default : No
Forced : No
Dialog Normalization : -27 dB
compr : -0.28 dB
dialnorm_Average : -27 dB
dialnorm_Minimum : -27 dB
dialnorm_Maximum : -27 dB

Audio #2
ID : 3
Format : E-AC-3
Format/Info : Enhanced AC-3
Commercial name : Dolby Digital Plus
Codec ID : A_EAC3
Duration : 38 min 9 s
Bit rate mode : Constant
Bit rate : 640 kb/s
Channel(s) : 6 channels
Channel layout : L R C LFE Ls Rs
Sampling rate : 48.0 kHz
Frame rate : 31.250 FPS (1536 SPF)
Compression mode : Lossy
Stream size : 175 MiB (4%)
Title : Tamil
Language : Tamil
Service kind : Complete Main
Default : No
Forced : No
Dialog Normalization : -27 dB
compr : -0.28 dB
dialnorm_Average : -27 dB
dialnorm_Minimum : -27 dB
dialnorm_Maximum : -27 dB

Audio #3
ID : 4
Format : E-AC-3
Format/Info : Enhanced AC-3
Commercial name : Dolby Digital Plus
Codec ID : A_EAC3
Duration : 38 min 9 s
Bit rate mode : Constant
Bit rate : 640 kb/s
Channel(s) : 6 channels
Channel layout : L R C LFE Ls Rs
Sampling rate : 48.0 kHz
Frame rate : 31.250 FPS (1536 SPF)
Compression mode : Lossy
Stream size : 175 MiB (4%)
Title : Telugu
Language : Telugu
Service kind : Complete Main
Default : No
Forced : No
Dialog Normalization : -27 dB
compr : -0.28 dB
dialnorm_Average : -27 dB
dialnorm_Minimum : -27 dB
dialnorm_Maximum : -27 dB

Audio #4
ID : 5
Format : E-AC-3
Format/Info : Enhanced AC-3
Commercial name : Dolby Digital Plus
Codec ID : A_EAC3
Duration : 38 min 12 s
Bit rate mode : Constant
Bit rate : 448 kb/s
Channel(s) : 6 channels
Channel layout : L R C LFE Ls Rs
Sampling rate : 48.0 kHz
Frame rate : 31.250 FPS (1536 SPF)
Compression mode : Lossy
Stream size : 122 MiB (3%)
Language : English
Service kind : Complete Main
Default : Yes
Forced : No
Dialog Normalization : -29 dB
compr : -0.28 dB
dialnorm_Average : -29 dB
dialnorm_Minimum : -29 dB
dialnorm_Maximum : -29 dB

Audio #5
ID : 6
Format : E-AC-3 JOC
Format/Info : Enhanced AC-3 with Joint Object Coding
Commercial name : Dolby Digital Plus with Dolby Atmos
Codec ID : A_EAC3
Duration : 38 min 12 s
Bit rate mode : Constant
Bit rate : 768 kb/s
Channel(s) : 6 channels
Channel layout : L R C LFE Ls Rs
Sampling rate : 48.0 kHz
Frame rate : 31.250 FPS (1536 SPF)
Compression mode : Lossy
Stream size : 210 MiB (5%)
Language : Hindi
Service kind : Complete Main
Default : No
Forced : No
Complexity index : 16
Number of dynamic objects : 15
Bed channel count : 1 channel
Bed channel configuration : LFE
Dialog Normalization : -27 dB
compr : -0.28 dB
dialnorm_Average : -27 dB
dialnorm_Minimum : -27 dB
dialnorm_Maximum : -27 dB

Text #1
ID : 7
Format : UTF-8
Codec ID : S_TEXT/UTF8
Codec ID/Info : UTF-8 Plain Text
Duration : 37 min 52 s
Bit rate : 164 b/s
Frame rate : 0.258 FPS
Count of elements : 587
Stream size : 45.7 KiB (0%)
Title : SDH
Language : Hindi
Default : No
Forced : No

Text #2
ID : 8
Format : UTF-8
Codec ID : S_TEXT/UTF8
Codec ID/Info : UTF-8 Plain Text
Duration : 30 min 0 s
Bit rate : 3 b/s
Frame rate : 0.016 FPS
Count of elements : 28
Stream size : 782 Bytes (0%)
Title : Forced
Language : English
Default : Yes
Forced : Yes

Text #3
ID : 9
Format : UTF-8
Codec ID : S_TEXT/UTF8
Codec ID/Info : UTF-8 Plain Text
Duration : 34 min 48 s
Bit rate : 66 b/s
Frame rate : 0.269 FPS
Count of elements : 561
Stream size : 16.9 KiB (0%)
Language : English
Default : No
Forced : No

General
Unique ID : 270940518066548309638715324028931292549 (0xCBD53EE57D0A179C57289AF0EA183D85)
Complete name : C:\Users\tmanc\Downloads\Kota.Factory.S02.2160p.NF.WEB-DL.HIN-ENG-TAM-TEL.DDP5.1.HEVC-Saon\Kota.Factory.S02E05.Packaging.2160p.NF.WEB-DL.HIN-ENG-TAM-TEL.DDP5.1.HEVC-Saon.mkv
Format : Matroska
Format version : Version 4
File size : 4.09 GiB
Duration : 39 min 10 s
Overall bit rate : 15.0 Mb/s
Frame rate : 25.000 FPS
Movie name : Downloaded From OlaMovies.Top
Encoded date : 2024-06-20 15:42:04 UTC
Writing application : mkvmerge v84.0 ('Sleeper') 64-bit
Writing library : libebml v1.4.5 + libmatroska v1.7.1
Cover : Yes
Attachments : cover.png

Video
ID : 1
Format : HEVC
Format/Info : High Efficiency Video Coding
Format profile : Main 10@L5@Main
Codec ID : V_MPEGH/ISO/HEVC
Duration : 39 min 10 s
Bit rate : 11.6 Mb/s
Width : 3 840 pixels
Height : 2 160 pixels
Display aspect ratio : 16:9
Frame rate mode : Constant
Frame rate : 25.000 FPS
Color space : YUV
Chroma subsampling : 4:2:0
Bit depth : 10 bits
Bits/(Pixel*Frame) : 0.056
Stream size : 3.18 GiB (78%)
Language : Hindi
Default : Yes
Forced : No
Color range : Limited
Color primaries : BT.709
Transfer characteristics : BT.709
Matrix coefficients : BT.709

Audio #1
ID : 2
Format : E-AC-3
Format/Info : Enhanced AC-3
Commercial name : Dolby Digital Plus
Codec ID : A_EAC3
Duration : 39 min 5 s
Bit rate mode : Constant
Bit rate : 640 kb/s
Channel(s) : 6 channels
Channel layout : L R C LFE Ls Rs
Sampling rate : 48.0 kHz
Frame rate : 31.250 FPS (1536 SPF)
Compression mode : Lossy
Stream size : 179 MiB (4%)
Title : Hindi - Audio Description
Language : Hindi
Service kind : Complete Main
Default : No
Forced : No
Dialog Normalization : -27 dB
compr : -0.28 dB
dialnorm_Average : -27 dB
dialnorm_Minimum : -27 dB
dialnorm_Maximum : -27 dB

Audio #2
ID : 3
Format : E-AC-3
Format/Info : Enhanced AC-3
Commercial name : Dolby Digital Plus
Codec ID : A_EAC3
Duration : 39 min 5 s
Bit rate mode : Constant
Bit rate : 640 kb/s
Channel(s) : 6 channels
Channel layout : L R C LFE Ls Rs
Sampling rate : 48.0 kHz
Frame rate : 31.250 FPS (1536 SPF)
Compression mode : Lossy
Stream size : 179 MiB (4%)
Title : Tamil
Language : Tamil
Service kind : Complete Main
Default : No
Forced : No
Dialog Normalization : -27 dB
compr : -0.28 dB
dialnorm_Average : -27 dB
dialnorm_Minimum : -27 dB
dialnorm_Maximum : -27 dB

Audio #3
ID : 4
Format : E-AC-3
Format/Info : Enhanced AC-3
Commercial name : Dolby Digital Plus
Codec ID : A_EAC3
Duration : 39 min 5 s
Bit rate mode : Constant
Bit rate : 640 kb/s
Channel(s) : 6 channels
Channel layout : L R C LFE Ls Rs
Sampling rate : 48.0 kHz
Frame rate : 31.250 FPS (1536 SPF)
Compression mode : Lossy
Stream size : 179 MiB (4%)
Title : Telugu
Language : Telugu
Service kind : Complete Main
Default : No
Forced : No
Dialog Normalization : -27 dB
compr : -0.28 dB
dialnorm_Average : -27 dB
dialnorm_Minimum : -27 dB
dialnorm_Maximum : -27 dB

Audio #4
ID : 5
Format : E-AC-3
Format/Info : Enhanced AC-3
Commercial name : Dolby Digital Plus
Codec ID : A_EAC3
Duration : 39 min 10 s
Bit rate mode : Constant
Bit rate : 640 kb/s
Channel(s) : 6 channels
Channel layout : L R C LFE Ls Rs
Sampling rate : 48.0 kHz
Frame rate : 31.250 FPS (1536 SPF)
Compression mode : Lossy
Stream size : 179 MiB (4%)
Language : English
Service kind : Complete Main
Default : Yes
Forced : No
Dialog Normalization : -27 dB
compr : -0.28 dB
dialnorm_Average : -27 dB
dialnorm_Minimum : -27 dB
dialnorm_Maximum : -27 dB

Audio #5
ID : 6
Format : E-AC-3 JOC
Format/Info : Enhanced AC-3 with Joint Object Coding
Commercial name : Dolby Digital Plus with Dolby Atmos
Codec ID : A_EAC3
Duration : 39 min 10 s
Bit rate mode : Constant
Bit rate : 768 kb/s
Channel(s) : 6 channels
Channel layout : L R C LFE Ls Rs
Sampling rate : 48.0 kHz
Frame rate : 31.250 FPS (1536 SPF)
Compression mode : Lossy
Stream size : 215 MiB (5%)
Language : Hindi
Service kind : Complete Main
Default : No
Forced : No
Complexity index : 16
Number of dynamic objects : 15
Bed channel count : 1 channel
Bed channel configuration : LFE
Dialog Normalization : -27 dB
compr : -0.28 dB
dialnorm_Average : -27 dB
dialnorm_Minimum : -27 dB
dialnorm_Maximum : -27 dB

Text #1
ID : 7
Format : UTF-8
Codec ID : S_TEXT/UTF8
Codec ID/Info : UTF-8 Plain Text
Duration : 38 min 50 s
Bit rate : 152 b/s
Frame rate : 0.221 FPS
Count of elements : 516
Stream size : 43.5 KiB (0%)
Title : SDH
Language : Hindi
Default : No
Forced : No

Text #2
ID : 8
Format : UTF-8
Codec ID : S_TEXT/UTF8
Codec ID/Info : UTF-8 Plain Text
Duration : 15 min 34 s
Bit rate : 0 b/s
Frame rate : 0.004 FPS
Count of elements : 4
Stream size : 101 Bytes (0%)
Title : Forced
Language : English
Default : Yes
Forced : Yes

Text #3
ID : 9
Format : UTF-8
Codec ID : S_TEXT/UTF8
Codec ID/Info : UTF-8 Plain Text
Duration : 35 min 58 s
Bit rate : 57 b/s
Frame rate : 0.223 FPS
Count of elements : 482
Stream size : 15.1 KiB (0%)
Language : English
Default : No
Forced : No

Files