Radhakrishn S01 1080p Web-DL - Magneto [Thugs]

The story of Radha and Krishna is the epitome of eternal love, which transcends eras and emotions.

Genre: Drama, Romance

General
Complete name : C:\Users\tmanc\Downloads\Radhakrishn S01 1080p Web-DL - Magneto [Thugs]\S01 E001. The Classic Love Saga 1080p Web-DL - Magneto [Thugs].mp4
Format : MPEG-4
Format profile : Base Media
Codec ID : isom (isom/iso2/avc1/mp41)
File size : 1.91 GiB
Duration : 59 min 44 s
Overall bit rate mode : Variable
Overall bit rate : 4 566 kb/s
Frame rate : 25.000 FPS
Writing application : Lavf58.46.101

Video
ID : 1
Format : AVC
Format/Info : Advanced Video Codec: Format profile : Main@L4
Format settings : CABAC / 1 Ref Frames
Format settings, CABAC : Yes
Format settings, Reference frames : 1 frame
Format settings, GOP : M=1, N=100
Codec ID : avc1
Codec ID/Info : Advanced Video Coding
Duration : 59 min 44 s
Bit rate mode : Constant
Bit rate : 4 500 kb/s
Width : 1 920 pixels
Height : 1 080 pixels
Display aspect ratio : 16:9
Frame rate mode : Constant
Frame rate : 25.000 FPS
Color space : YUV
Chroma subsampling : 4:2:0
Bit depth : 8 bits
Scan type : Progressive
Bits/(Pixel*Frame) : 0.087
Stream size : 1.88 GiB (99%)
Codec configuration box : avcC

Audio
ID : 2
Format : AAC LC
Format/Info : Advanced Audio Codec Low Complexity
Codec ID : mp4a-40-2
Duration : 59 min 44 s
Bit rate mode : Variable
Bit rate : 61.4 kb/s
Maximum bit rate : 64.1 kb/s
Channel(s) : 2 channels
Channel layout : L R
Sampling rate : 48.0 kHz
Frame rate : 46.875 FPS (1024 SPF)
Compression mode : Lossy
Stream size : 26.2 MiB (1%)
Default : Yes
Alternate group : 1

General
Complete name : C:\Users\tmanc\Downloads\Radhakrishn S01 1080p Web-DL - Magneto [Thugs]\S01 E002. Radha, Krishna Take a New Birth 1080p Web-DL - Magneto [Thugs].mp4
Format : MPEG-4
Format profile : Base Media
Codec ID : isom (isom/iso2/avc1/mp41)
File size : 838 MiB
Duration : 25 min 38 s
Overall bit rate mode : Variable
Overall bit rate : 4 566 kb/s
Frame rate : 25.000 FPS
Writing application : Lavf58.46.101

Video
ID : 1
Format : AVC
Format/Info : Advanced Video Codec: Format profile : Main@L4
Format settings : CABAC / 1 Ref Frames
Format settings, CABAC : Yes
Format settings, Reference frames : 1 frame
Format settings, GOP : M=1, N=100
Codec ID : avc1
Codec ID/Info : Advanced Video Coding
Duration : 25 min 38 s
Bit rate mode : Constant
Bit rate : 4 500 kb/s
Width : 1 920 pixels
Height : 1 080 pixels
Display aspect ratio : 16:9
Frame rate mode : Constant
Frame rate : 25.000 FPS
Color space : YUV
Chroma subsampling : 4:2:0
Bit depth : 8 bits
Scan type : Progressive
Bits/(Pixel*Frame) : 0.087
Stream size : 826 MiB (99%)
Codec configuration box : avcC

Audio
ID : 2
Format : AAC LC
Format/Info : Advanced Audio Codec Low Complexity
Codec ID : mp4a-40-2
Duration : 25 min 38 s
Bit rate mode : Variable
Bit rate : 61.4 kb/s
Maximum bit rate : 64.1 kb/s
Channel(s) : 2 channels
Channel layout : L R
Sampling rate : 48.0 kHz
Frame rate : 46.875 FPS (1024 SPF)
Compression mode : Lossy
Stream size : 11.3 MiB (1%)
Default : Yes
Alternate group : 1

General
Complete name : C:\Users\tmanc\Downloads\Radhakrishn S01 1080p Web-DL - Magneto [Thugs]\S01 E003. Vasudev Swaps the Infants 1080p Web-DL - Magneto [Thugs].mp4
Format : MPEG-4
Format profile : Base Media
Codec ID : isom (isom/iso2/avc1/mp41)
File size : 764 MiB
Duration : 23 min 23 s
Overall bit rate mode : Variable
Overall bit rate : 4 566 kb/s
Frame rate : 25.000 FPS
Writing application : Lavf58.46.101

Video
ID : 1
Format : AVC
Format/Info : Advanced Video Codec: Format profile : Main@L4
Format settings : CABAC / 1 Ref Frames
Format settings, CABAC : Yes
Format settings, Reference frames : 1 frame
Format settings, GOP : M=1, N=100
Codec ID : avc1
Codec ID/Info : Advanced Video Coding
Duration : 23 min 23 s
Bit rate mode : Constant
Bit rate : 4 500 kb/s
Width : 1 920 pixels
Height : 1 080 pixels
Display aspect ratio : 16:9
Frame rate mode : Constant
Frame rate : 25.000 FPS
Color space : YUV
Chroma subsampling : 4:2:0
Bit depth : 8 bits
Scan type : Progressive
Bits/(Pixel*Frame) : 0.087
Stream size : 753 MiB (99%)
Codec configuration box : avcC

Audio
ID : 2
Format : AAC LC
Format/Info : Advanced Audio Codec Low Complexity
Codec ID : mp4a-40-2
Duration : 23 min 23 s
Bit rate mode : Variable
Bit rate : 61.4 kb/s
Maximum bit rate : 64.1 kb/s
Channel(s) : 2 channels
Channel layout : L R
Sampling rate : 48.0 kHz
Frame rate : 46.875 FPS (1024 SPF)
Compression mode : Lossy
Stream size : 10.3 MiB (1%)
Default : Yes
Alternate group : 1

General
Complete name : C:\Users\tmanc\Downloads\Radhakrishn S01 1080p Web-DL - Magneto [Thugs]\S01 E004. Krishna Kills a Demon 1080p Web-DL - Magneto [Thugs].mp4
Format : MPEG-4
Format profile : Base Media
Codec ID : isom (isom/iso2/avc1/mp41)
File size : 755 MiB
Duration : 23 min 7 s
Overall bit rate mode : Variable
Overall bit rate : 4 566 kb/s
Frame rate : 25.000 FPS
Writing application : Lavf58.46.101

Video
ID : 1
Format : AVC
Format/Info : Advanced Video Codec: Format profile : Main@L4
Format settings : CABAC / 1 Ref Frames
Format settings, CABAC : Yes
Format settings, Reference frames : 1 frame
Format settings, GOP : M=1, N=100
Codec ID : avc1
Codec ID/Info : Advanced Video Coding
Duration : 23 min 7 s
Bit rate mode : Constant
Bit rate : 4 500 kb/s
Width : 1 920 pixels
Height : 1 080 pixels
Display aspect ratio : 16:9
Frame rate mode : Constant
Frame rate : 25.000 FPS
Color space : YUV
Chroma subsampling : 4:2:0
Bit depth : 8 bits
Scan type : Progressive
Bits/(Pixel*Frame) : 0.087
Stream size : 744 MiB (99%)
Codec configuration box : avcC

Audio
ID : 2
Format : AAC LC
Format/Info : Advanced Audio Codec Low Complexity
Codec ID : mp4a-40-2
Duration : 23 min 7 s
Bit rate mode : Variable
Bit rate : 61.4 kb/s
Maximum bit rate : 64.1 kb/s
Channel(s) : 2 channels
Channel layout : L R
Sampling rate : 48.0 kHz
Frame rate : 46.875 FPS (1024 SPF)
Compression mode : Lossy
Stream size : 10.1 MiB (1%)
Default : Yes
Alternate group : 1

General
Complete name : C:\Users\tmanc\Downloads\Radhakrishn S01 1080p Web-DL - Magneto [Thugs]\S01 E005. Radha's Stern Decision 1080p Web-DL - Magneto [Thugs].mp4
Format : MPEG-4
Format profile : Base Media
Codec ID : isom (isom/iso2/avc1/mp41)
File size : 763 MiB
Duration : 23 min 20 s
Overall bit rate mode : Variable
Overall bit rate : 4 568 kb/s
Frame rate : 25.000 FPS
Writing application : Lavf58.46.101

Video
ID : 1
Format : AVC
Format/Info : Advanced Video Codec: Format profile : Main@L4
Format settings : CABAC / 1 Ref Frames
Format settings, CABAC : Yes
Format settings, Reference frames : 1 frame
Format settings, GOP : M=1, N=100
Codec ID : avc1
Codec ID/Info : Advanced Video Coding
Duration : 23 min 20 s
Bit rate mode : Constant
Bit rate : 4 500 kb/s
Width : 1 920 pixels
Height : 1 080 pixels
Display aspect ratio : 16:9
Frame rate mode : Constant
Frame rate : 25.000 FPS
Color space : YUV
Chroma subsampling : 4:2:0
Bit depth : 8 bits
Scan type : Progressive
Bits/(Pixel*Frame) : 0.087
Stream size : 752 MiB (99%)
Codec configuration box : avcC

Audio
ID : 2
Format : AAC LC
Format/Info : Advanced Audio Codec Low Complexity
Codec ID : mp4a-40-2
Duration : 23 min 20 s
Bit rate mode : Variable
Bit rate : 61.4 kb/s
Maximum bit rate : 64.1 kb/s
Channel(s) : 2 channels
Channel layout : L R
Sampling rate : 48.0 kHz
Frame rate : 46.875 FPS (1024 SPF)
Compression mode : Lossy
Stream size : 10.2 MiB (1%)
Default : Yes
Alternate group : 1

General
Complete name : C:\Users\tmanc\Downloads\Radhakrishn S01 1080p Web-DL - Magneto [Thugs]\S01 E006. It's Time for Love, Again! 1080p Web-DL - Magneto [Thugs].mp4
Format : MPEG-4
Format profile : Base Media
Codec ID : isom (isom/iso2/avc1/mp41)
File size : 777 MiB
Duration : 23 min 47 s
Overall bit rate mode : Variable
Overall bit rate : 4 567 kb/s
Frame rate : 25.000 FPS
Writing application : Lavf58.46.101

Video
ID : 1
Format : AVC
Format/Info : Advanced Video Codec: Format profile : Main@L4
Format settings : CABAC / 1 Ref Frames
Format settings, CABAC : Yes
Format settings, Reference frames : 1 frame
Format settings, GOP : M=1, N=100
Codec ID : avc1
Codec ID/Info : Advanced Video Coding
Duration : 23 min 47 s
Bit rate mode : Constant
Bit rate : 4 500 kb/s
Width : 1 920 pixels
Height : 1 080 pixels
Display aspect ratio : 16:9
Frame rate mode : Constant
Frame rate : 25.000 FPS
Color space : YUV
Chroma subsampling : 4:2:0
Bit depth : 8 bits
Scan type : Progressive
Bits/(Pixel*Frame) : 0.087
Stream size : 766 MiB (99%)
Codec configuration box : avcC

Audio
ID : 2
Format : AAC LC
Format/Info : Advanced Audio Codec Low Complexity
Codec ID : mp4a-40-2
Duration : 23 min 47 s
Bit rate mode : Variable
Bit rate : 61.4 kb/s
Maximum bit rate : 64.1 kb/s
Channel(s) : 2 channels
Channel layout : L R
Sampling rate : 48.0 kHz
Frame rate : 46.875 FPS (1024 SPF)
Compression mode : Lossy
Stream size : 10.4 MiB (1%)
Default : Yes
Alternate group : 1

General
Complete name : C:\Users\tmanc\Downloads\Radhakrishn S01 1080p Web-DL - Magneto [Thugs]\S01 E007. Radha Appreciates Lord Krishna 1080p Web-DL - Magneto [Thugs].mp4
Format : MPEG-4
Format profile : Base Media
Codec ID : isom (isom/iso2/avc1/mp41)
File size : 655 MiB
Duration : 20 min 4 s
Overall bit rate mode : Variable
Overall bit rate : 4 566 kb/s
Frame rate : 25.000 FPS
Writing application : Lavf58.46.101

Video
ID : 1
Format : AVC
Format/Info : Advanced Video Codec: Format profile : Main@L4
Format settings : CABAC / 1 Ref Frames
Format settings, CABAC : Yes
Format settings, Reference frames : 1 frame
Format settings, GOP : M=1, N=100
Codec ID : avc1
Codec ID/Info : Advanced Video Coding
Duration : 20 min 4 s
Bit rate mode : Constant
Bit rate : 4 500 kb/s
Width : 1 920 pixels
Height : 1 080 pixels
Display aspect ratio : 16:9
Frame rate mode : Constant
Frame rate : 25.000 FPS
Color space : YUV
Chroma subsampling : 4:2:0
Bit depth : 8 bits
Scan type : Progressive
Bits/(Pixel*Frame) : 0.087
Stream size : 646 MiB (99%)
Codec configuration box : avcC

Audio
ID : 2
Format : AAC LC
Format/Info : Advanced Audio Codec Low Complexity
Codec ID : mp4a-40-2
Duration : 20 min 3 s
Bit rate mode : Variable
Bit rate : 61.4 kb/s
Maximum bit rate : 64.1 kb/s
Channel(s) : 2 channels
Channel layout : L R
Sampling rate : 48.0 kHz
Frame rate : 46.875 FPS (1024 SPF)
Compression mode : Lossy
Stream size : 8.81 MiB (1%)
Default : Yes
Alternate group : 1

General
Complete name : C:\Users\tmanc\Downloads\Radhakrishn S01 1080p Web-DL - Magneto [Thugs]\S01 E008. Krishna Is Radha's Saviour 1080p Web-DL - Magneto [Thugs].mp4
Format : MPEG-4
Format profile : Base Media
Codec ID : isom (isom/iso2/avc1/mp41)
File size : 661 MiB
Duration : 20 min 13 s
Overall bit rate mode : Variable
Overall bit rate : 4 567 kb/s
Frame rate : 25.000 FPS
Writing application : Lavf58.46.101

Video
ID : 1
Format : AVC
Format/Info : Advanced Video Codec: Format profile : Main@L4
Format settings : CABAC / 1 Ref Frames
Format settings, CABAC : Yes
Format settings, Reference frames : 1 frame
Format settings, GOP : M=1, N=100
Codec ID : avc1
Codec ID/Info : Advanced Video Coding
Duration : 20 min 13 s
Bit rate mode : Constant
Bit rate : 4 500 kb/s
Width : 1 920 pixels
Height : 1 080 pixels
Display aspect ratio : 16:9
Frame rate mode : Constant
Frame rate : 25.000 FPS
Color space : YUV
Chroma subsampling : 4:2:0
Bit depth : 8 bits
Scan type : Progressive
Bits/(Pixel*Frame) : 0.087
Stream size : 651 MiB (99%)
Codec configuration box : avcC

Audio
ID : 2
Format : AAC LC
Format/Info : Advanced Audio Codec Low Complexity
Codec ID : mp4a-40-2
Duration : 20 min 13 s
Bit rate mode : Variable
Bit rate : 61.4 kb/s
Maximum bit rate : 64.1 kb/s
Channel(s) : 2 channels
Channel layout : L R
Sampling rate : 48.0 kHz
Frame rate : 46.875 FPS (1024 SPF)
Compression mode : Lossy
Stream size : 8.88 MiB (1%)
Default : Yes
Alternate group : 1

General
Complete name : C:\Users\tmanc\Downloads\Radhakrishn S01 1080p Web-DL - Magneto [Thugs]\S01 E009. Krishna Grabs Radha's Attention 1080p Web-DL - Magneto [Thugs].mp4
Format : MPEG-4
Format profile : Base Media
Codec ID : isom (isom/iso2/avc1/mp41)
File size : 665 MiB
Duration : 20 min 21 s
Overall bit rate mode : Variable
Overall bit rate : 4 568 kb/s
Frame rate : 25.000 FPS
Writing application : Lavf58.46.101

Video
ID : 1
Format : AVC
Format/Info : Advanced Video Codec: Format profile : Main@L4
Format settings : CABAC / 1 Ref Frames
Format settings, CABAC : Yes
Format settings, Reference frames : 1 frame
Format settings, GOP : M=1, N=100
Codec ID : avc1
Codec ID/Info : Advanced Video Coding
Duration : 20 min 21 s
Bit rate mode : Constant
Bit rate : 4 500 kb/s
Width : 1 920 pixels
Height : 1 080 pixels
Display aspect ratio : 16:9
Frame rate mode : Constant
Frame rate : 25.000 FPS
Color space : YUV
Chroma subsampling : 4:2:0
Bit depth : 8 bits
Scan type : Progressive
Bits/(Pixel*Frame) : 0.087
Stream size : 655 MiB (99%)
Codec configuration box : avcC

Audio
ID : 2
Format : AAC LC
Format/Info : Advanced Audio Codec Low Complexity
Codec ID : mp4a-40-2
Duration : 20 min 21 s
Bit rate mode : Variable
Bit rate : 61.4 kb/s
Maximum bit rate : 64.1 kb/s
Channel(s) : 2 channels
Channel layout : L R
Sampling rate : 48.0 kHz
Frame rate : 46.875 FPS (1024 SPF)
Compression mode : Lossy
Stream size : 8.94 MiB (1%)
Default : Yes
Alternate group : 1

General
Complete name : C:\Users\tmanc\Downloads\Radhakrishn S01 1080p Web-DL - Magneto [Thugs]\S01 E010. Will Krishna Oblige Radha 1080p Web-DL - Magneto [Thugs].mp4
Format : MPEG-4
Format profile : Base Media
Codec ID : isom (isom/iso2/avc1/mp41)
File size : 664 MiB
Duration : 20 min 20 s
Overall bit rate mode : Variable
Overall bit rate : 4 568 kb/s
Frame rate : 25.000 FPS
Writing application : Lavf58.46.101

Video
ID : 1
Format : AVC
Format/Info : Advanced Video Codec: Format profile : Main@L4
Format settings : CABAC / 1 Ref Frames
Format settings, CABAC : Yes
Format settings, Reference frames : 1 frame
Format settings, GOP : M=1, N=100
Codec ID : avc1
Codec ID/Info : Advanced Video Coding
Duration : 20 min 20 s
Bit rate mode : Constant
Bit rate : 4 500 kb/s
Width : 1 920 pixels
Height : 1 080 pixels
Display aspect ratio : 16:9
Frame rate mode : Constant
Frame rate : 25.000 FPS
Color space : YUV
Chroma subsampling : 4:2:0
Bit depth : 8 bits
Scan type : Progressive
Bits/(Pixel*Frame) : 0.087
Stream size : 655 MiB (99%)
Codec configuration box : avcC

Audio
ID : 2
Format : AAC LC
Format/Info : Advanced Audio Codec Low Complexity
Codec ID : mp4a-40-2
Duration : 20 min 20 s
Bit rate mode : Variable
Bit rate : 61.4 kb/s
Maximum bit rate : 64.1 kb/s
Channel(s) : 2 channels
Channel layout : L R
Sampling rate : 48.0 kHz
Frame rate : 46.875 FPS (1024 SPF)
Compression mode : Lossy
Stream size : 8.93 MiB (1%)
Default : Yes
Alternate group : 1

General
Complete name : C:\Users\tmanc\Downloads\Radhakrishn S01 1080p Web-DL - Magneto [Thugs]\S01 E011. Krishna's Smart Idea 1080p Web-DL - Magneto [Thugs].mp4
Format : MPEG-4
Format profile : Base Media
Codec ID : isom (isom/iso2/avc1/mp41)
File size : 656 MiB
Duration : 20 min 4 s
Overall bit rate mode : Variable
Overall bit rate : 4 567 kb/s
Frame rate : 25.000 FPS
Writing application : Lavf58.46.101

Video
ID : 1
Format : AVC
Format/Info : Advanced Video Codec: Format profile : Main@L4
Format settings : CABAC / 1 Ref Frames
Format settings, CABAC : Yes
Format settings, Reference frames : 1 frame
Format settings, GOP : M=1, N=100
Codec ID : avc1
Codec ID/Info : Advanced Video Coding
Duration : 20 min 4 s
Bit rate mode : Constant
Bit rate : 4 500 kb/s
Width : 1 920 pixels
Height : 1 080 pixels
Display aspect ratio : 16:9
Frame rate mode : Constant
Frame rate : 25.000 FPS
Color space : YUV
Chroma subsampling : 4:2:0
Bit depth : 8 bits
Scan type : Progressive
Bits/(Pixel*Frame) : 0.087
Stream size : 646 MiB (99%)
Codec configuration box : avcC

Audio
ID : 2
Format : AAC LC
Format/Info : Advanced Audio Codec Low Complexity
Codec ID : mp4a-40-2
Duration : 20 min 4 s
Bit rate mode : Variable
Bit rate : 61.4 kb/s
Maximum bit rate : 64.1 kb/s
Channel(s) : 2 channels
Channel layout : L R
Sampling rate : 48.0 kHz
Frame rate : 46.875 FPS (1024 SPF)
Compression mode : Lossy
Stream size : 8.81 MiB (1%)
Default : Yes
Alternate group : 1

General
Complete name : C:\Users\tmanc\Downloads\Radhakrishn S01 1080p Web-DL - Magneto [Thugs]\S01 E012. Radha's Concern for Krishna 1080p Web-DL - Magneto [Thugs].mp4
Format : MPEG-4
Format profile : Base Media
Codec ID : isom (isom/iso2/avc1/mp41)
File size : 666 MiB
Duration : 20 min 22 s
Overall bit rate mode : Variable
Overall bit rate : 4 566 kb/s
Frame rate : 25.000 FPS
Writing application : Lavf58.46.101

Video
ID : 1
Format : AVC
Format/Info : Advanced Video Codec: Format profile : Main@L4
Format settings : CABAC / 1 Ref Frames
Format settings, CABAC : Yes
Format settings, Reference frames : 1 frame
Format settings, GOP : M=1, N=100
Codec ID : avc1
Codec ID/Info : Advanced Video Coding
Duration : 20 min 22 s
Bit rate mode : Constant
Bit rate : 4 500 kb/s
Width : 1 920 pixels
Height : 1 080 pixels
Display aspect ratio : 16:9
Frame rate mode : Constant
Frame rate : 25.000 FPS
Color space : YUV
Chroma subsampling : 4:2:0
Bit depth : 8 bits
Scan type : Progressive
Bits/(Pixel*Frame) : 0.087
Stream size : 656 MiB (99%)
Codec configuration box : avcC

Audio
ID : 2
Format : AAC LC
Format/Info : Advanced Audio Codec Low Complexity
Codec ID : mp4a-40-2
Duration : 20 min 22 s
Bit rate mode : Variable
Bit rate : 61.4 kb/s
Maximum bit rate : 64.1 kb/s
Channel(s) : 2 channels
Channel layout : L R
Sampling rate : 48.0 kHz
Frame rate : 46.875 FPS (1024 SPF)
Compression mode : Lossy
Stream size : 8.95 MiB (1%)
Default : Yes
Alternate group : 1

General
Complete name : C:\Users\tmanc\Downloads\Radhakrishn S01 1080p Web-DL - Magneto [Thugs]\S01 E013. Krishna wants Radha's Room 1080p Web-DL - Magneto [Thugs].mp4
Format : MPEG-4
Format profile : Base Media
Codec ID : isom (isom/iso2/avc1/mp41)
File size : 689 MiB
Duration : 21 min 5 s
Overall bit rate mode : Variable
Overall bit rate : 4 567 kb/s
Frame rate : 25.000 FPS
Writing application : Lavf58.46.101

Video
ID : 1
Format : AVC
Format/Info : Advanced Video Codec: Format profile : Main@L4
Format settings : CABAC / 1 Ref Frames
Format settings, CABAC : Yes
Format settings, Reference frames : 1 frame
Format settings, GOP : M=1, N=100
Codec ID : avc1
Codec ID/Info : Advanced Video Coding
Duration : 21 min 5 s
Bit rate mode : Constant
Bit rate : 4 500 kb/s
Width : 1 920 pixels
Height : 1 080 pixels
Display aspect ratio : 16:9
Frame rate mode : Constant
Frame rate : 25.000 FPS
Color space : YUV
Chroma subsampling : 4:2:0
Bit depth : 8 bits
Scan type : Progressive
Bits/(Pixel*Frame) : 0.087
Stream size : 679 MiB (99%)
Codec configuration box : avcC

Audio
ID : 2
Format : AAC LC
Format/Info : Advanced Audio Codec Low Complexity
Codec ID : mp4a-40-2
Duration : 21 min 5 s
Bit rate mode : Variable
Bit rate : 61.4 kb/s
Maximum bit rate : 64.1 kb/s
Channel(s) : 2 channels
Channel layout : L R
Sampling rate : 48.0 kHz
Frame rate : 46.875 FPS (1024 SPF)
Compression mode : Lossy
Stream size : 9.26 MiB (1%)
Default : Yes
Alternate group : 1

General
Complete name : C:\Users\tmanc\Downloads\Radhakrishn S01 1080p Web-DL - Magneto [Thugs]\S01 E014. Krishna wants Radha's Room 1080p Web-DL - Magneto [Thugs].mp4
Format : MPEG-4
Format profile : Base Media
Codec ID : isom (isom/iso2/avc1/mp41)
File size : 684 MiB
Duration : 20 min 56 s
Overall bit rate mode : Variable
Overall bit rate : 4 567 kb/s
Frame rate : 25.000 FPS
Writing application : Lavf58.46.101

Video
ID : 1
Format : AVC
Format/Info : Advanced Video Codec: Format profile : Main@L4
Format settings : CABAC / 1 Ref Frames
Format settings, CABAC : Yes
Format settings, Reference frames : 1 frame
Format settings, GOP : M=1, N=100
Codec ID : avc1
Codec ID/Info : Advanced Video Coding
Duration : 20 min 56 s
Bit rate mode : Constant
Bit rate : 4 500 kb/s
Width : 1 920 pixels
Height : 1 080 pixels
Display aspect ratio : 16:9
Frame rate mode : Constant
Frame rate : 25.000 FPS
Color space : YUV
Chroma subsampling : 4:2:0
Bit depth : 8 bits
Scan type : Progressive
Bits/(Pixel*Frame) : 0.087
Stream size : 674 MiB (99%)
Codec configuration box : avcC

Audio
ID : 2
Format : AAC LC
Format/Info : Advanced Audio Codec Low Complexity
Codec ID : mp4a-40-2
Duration : 20 min 56 s
Bit rate mode : Variable
Bit rate : 61.4 kb/s
Maximum bit rate : 64.1 kb/s
Channel(s) : 2 channels
Channel layout : L R
Sampling rate : 48.0 kHz
Frame rate : 46.875 FPS (1024 SPF)
Compression mode : Lossy
Stream size : 9.19 MiB (1%)
Default : Yes
Alternate group : 1

General
Complete name : C:\Users\tmanc\Downloads\Radhakrishn S01 1080p Web-DL - Magneto [Thugs]\S01 E015. Radha Feels Mystical 1080p Web-DL - Magneto [Thugs].mp4
Format : MPEG-4
Format profile : Base Media
Codec ID : isom (isom/iso2/avc1/mp41)
File size : 690 MiB
Duration : 21 min 7 s
Overall bit rate mode : Variable
Overall bit rate : 4 567 kb/s
Frame rate : 25.000 FPS
Writing application : Lavf58.46.101

Video
ID : 1
Format : AVC
Format/Info : Advanced Video Codec: Format profile : Main@L4
Format settings : CABAC / 1 Ref Frames
Format settings, CABAC : Yes
Format settings, Reference frames : 1 frame
Format settings, GOP : M=1, N=100
Codec ID : avc1
Codec ID/Info : Advanced Video Coding
Duration : 21 min 7 s
Bit rate mode : Constant
Bit rate : 4 500 kb/s
Width : 1 920 pixels
Height : 1 080 pixels
Display aspect ratio : 16:9
Frame rate mode : Constant
Frame rate : 25.000 FPS
Color space : YUV
Chroma subsampling : 4:2:0
Bit depth : 8 bits
Scan type : Progressive
Bits/(Pixel*Frame) : 0.087
Stream size : 680 MiB (99%)
Codec configuration box : avcC

Audio
ID : 2
Format : AAC LC
Format/Info : Advanced Audio Codec Low Complexity
Codec ID : mp4a-40-2
Duration : 21 min 7 s
Bit rate mode : Variable
Bit rate : 61.4 kb/s
Maximum bit rate : 64.1 kb/s
Channel(s) : 2 channels
Channel layout : L R
Sampling rate : 48.0 kHz
Frame rate : 46.875 FPS (1024 SPF)
Compression mode : Lossy
Stream size : 9.27 MiB (1%)
Default : Yes
Alternate group : 1

General
Complete name : C:\Users\tmanc\Downloads\Radhakrishn S01 1080p Web-DL - Magneto [Thugs]\S01 E016. Jhatila Is against Krishna 1080p Web-DL - Magneto [Thugs].mp4
Format : MPEG-4
Format profile : Base Media
Codec ID : isom (isom/iso2/avc1/mp41)
File size : 712 MiB
Duration : 21 min 47 s
Overall bit rate mode : Variable
Overall bit rate : 4 566 kb/s
Frame rate : 25.000 FPS
Writing application : Lavf58.46.101

Video
ID : 1
Format : AVC
Format/Info : Advanced Video Codec: Format profile : Main@L4
Format settings : CABAC / 1 Ref Frames
Format settings, CABAC : Yes
Format settings, Reference frames : 1 frame
Format settings, GOP : M=1, N=100
Codec ID : avc1
Codec ID/Info : Advanced Video Coding
Duration : 21 min 47 s
Bit rate mode : Constant
Bit rate : 4 500 kb/s
Width : 1 920 pixels
Height : 1 080 pixels
Display aspect ratio : 16:9
Frame rate mode : Constant
Frame rate : 25.000 FPS
Color space : YUV
Chroma subsampling : 4:2:0
Bit depth : 8 bits
Scan type : Progressive
Bits/(Pixel*Frame) : 0.087
Stream size : 702 MiB (99%)
Codec configuration box : avcC

Audio
ID : 2
Format : AAC LC
Format/Info : Advanced Audio Codec Low Complexity
Codec ID : mp4a-40-2
Duration : 21 min 47 s
Bit rate mode : Variable
Bit rate : 61.4 kb/s
Maximum bit rate : 64.1 kb/s
Channel(s) : 2 channels
Channel layout : L R
Sampling rate : 48.0 kHz
Frame rate : 46.875 FPS (1024 SPF)
Compression mode : Lossy
Stream size : 9.57 MiB (1%)
Default : Yes
Alternate group : 1

General
Complete name : C:\Users\tmanc\Downloads\Radhakrishn S01 1080p Web-DL - Magneto [Thugs]\S01 E017. Krishna Makes a Demand 1080p Web-DL - Magneto [Thugs].mp4
Format : MPEG-4
Format profile : Base Media
Codec ID : isom (isom/iso2/avc1/mp41)
File size : 677 MiB
Duration : 20 min 43 s
Overall bit rate mode : Variable
Overall bit rate : 4 567 kb/s
Frame rate : 25.000 FPS
Writing application : Lavf58.46.101

Video
ID : 1
Format : AVC
Format/Info : Advanced Video Codec: Format profile : Main@L4
Format settings : CABAC / 1 Ref Frames
Format settings, CABAC : Yes
Format settings, Reference frames : 1 frame
Format settings, GOP : M=1, N=100
Codec ID : avc1
Codec ID/Info : Advanced Video Coding
Duration : 20 min 43 s
Bit rate mode : Constant
Bit rate : 4 500 kb/s
Width : 1 920 pixels
Height : 1 080 pixels
Display aspect ratio : 16:9
Frame rate mode : Constant
Frame rate : 25.000 FPS
Color space : YUV
Chroma subsampling : 4:2:0
Bit depth : 8 bits
Scan type : Progressive
Bits/(Pixel*Frame) : 0.087
Stream size : 667 MiB (99%)
Codec configuration box : avcC

Audio
ID : 2
Format : AAC LC
Format/Info : Advanced Audio Codec Low Complexity
Codec ID : mp4a-40-2
Duration : 20 min 43 s
Bit rate mode : Variable
Bit rate : 61.4 kb/s
Maximum bit rate : 64.1 kb/s
Channel(s) : 2 channels
Channel layout : L R
Sampling rate : 48.0 kHz
Frame rate : 46.875 FPS (1024 SPF)
Compression mode : Lossy
Stream size : 9.10 MiB (1%)
Default : Yes
Alternate group : 1

General
Complete name : C:\Users\tmanc\Downloads\Radhakrishn S01 1080p Web-DL - Magneto [Thugs]\S01 E018. Radha Feeds Krishna 1080p Web-DL - Magneto [Thugs].mp4
Format : MPEG-4
Format profile : Base Media
Codec ID : isom (isom/iso2/avc1/mp41)
File size : 740 MiB
Duration : 22 min 38 s
Overall bit rate mode : Variable
Overall bit rate : 4 567 kb/s
Frame rate : 25.000 FPS
Writing application : Lavf58.46.101

Video
ID : 1
Format : AVC
Format/Info : Advanced Video Codec: Format profile : Main@L4
Format settings : CABAC / 1 Ref Frames
Format settings, CABAC : Yes
Format settings, Reference frames : 1 frame
Format settings, GOP : M=1, N=100
Codec ID : avc1
Codec ID/Info : Advanced Video Coding
Duration : 22 min 38 s
Bit rate mode : Constant
Bit rate : 4 500 kb/s
Width : 1 920 pixels
Height : 1 080 pixels
Display aspect ratio : 16:9
Frame rate mode : Constant
Frame rate : 25.000 FPS
Color space : YUV
Chroma subsampling : 4:2:0
Bit depth : 8 bits
Scan type : Progressive
Bits/(Pixel*Frame) : 0.087
Stream size : 729 MiB (99%)
Codec configuration box : avcC

Audio
ID : 2
Format : AAC LC
Format/Info : Advanced Audio Codec Low Complexity
Codec ID : mp4a-40-2
Duration : 22 min 38 s
Bit rate mode : Variable
Bit rate : 61.4 kb/s
Maximum bit rate : 64.1 kb/s
Channel(s) : 2 channels
Channel layout : L R
Sampling rate : 48.0 kHz
Frame rate : 46.875 FPS (1024 SPF)
Compression mode : Lossy
Stream size : 9.94 MiB (1%)
Default : Yes
Alternate group : 1

General
Complete name : C:\Users\tmanc\Downloads\Radhakrishn S01 1080p Web-DL - Magneto [Thugs]\S01 E019. Radha, Krishna Come Closer 1080p Web-DL - Magneto [Thugs].mp4
Format : MPEG-4
Format profile : Base Media
Codec ID : isom (isom/iso2/avc1/mp41)
File size : 751 MiB
Duration : 22 min 58 s
Overall bit rate mode : Variable
Overall bit rate : 4 567 kb/s
Frame rate : 25.000 FPS
Writing application : Lavf58.46.101

Video
ID : 1
Format : AVC
Format/Info : Advanced Video Codec: Format profile : Main@L4
Format settings : CABAC / 1 Ref Frames
Format settings, CABAC : Yes
Format settings, Reference frames : 1 frame
Format settings, GOP : M=1, N=100
Codec ID : avc1
Codec ID/Info : Advanced Video Coding
Duration : 22 min 58 s
Bit rate mode : Constant
Bit rate : 4 500 kb/s
Width : 1 920 pixels
Height : 1 080 pixels
Display aspect ratio : 16:9
Frame rate mode : Constant
Frame rate : 25.000 FPS
Color space : YUV
Chroma subsampling : 4:2:0
Bit depth : 8 bits
Scan type : Progressive
Bits/(Pixel*Frame) : 0.087
Stream size : 740 MiB (99%)
Codec configuration box : avcC

Audio
ID : 2
Format : AAC LC
Format/Info : Advanced Audio Codec Low Complexity
Codec ID : mp4a-40-2
Duration : 22 min 58 s
Bit rate mode : Variable
Bit rate : 61.4 kb/s
Maximum bit rate : 64.1 kb/s
Channel(s) : 2 channels
Channel layout : L R
Sampling rate : 48.0 kHz
Frame rate : 46.875 FPS (1024 SPF)
Compression mode : Lossy
Stream size : 10.1 MiB (1%)
Default : Yes
Alternate group : 1

General
Complete name : C:\Users\tmanc\Downloads\Radhakrishn S01 1080p Web-DL - Magneto [Thugs]\S01 E020. Krishna to Persuade Radha 1080p Web-DL - Magneto [Thugs].mp4
Format : MPEG-4
Format profile : Base Media
Codec ID : isom (isom/iso2/avc1/mp41)
File size : 748 MiB
Duration : 22 min 53 s
Overall bit rate mode : Variable
Overall bit rate : 4 566 kb/s
Frame rate : 25.000 FPS
Writing application : Lavf58.46.101

Video
ID : 1
Format : AVC
Format/Info : Advanced Video Codec: Format profile : Main@L4
Format settings : CABAC / 1 Ref Frames
Format settings, CABAC : Yes
Format settings, Reference frames : 1 frame
Format settings, GOP : M=1, N=100
Codec ID : avc1
Codec ID/Info : Advanced Video Coding
Duration : 22 min 53 s
Bit rate mode : Constant
Bit rate : 4 500 kb/s
Width : 1 920 pixels
Height : 1 080 pixels
Display aspect ratio : 16:9
Frame rate mode : Constant
Frame rate : 25.000 FPS
Color space : YUV
Chroma subsampling : 4:2:0
Bit depth : 8 bits
Scan type : Progressive
Bits/(Pixel*Frame) : 0.087
Stream size : 737 MiB (99%)
Codec configuration box : avcC

Audio
ID : 2
Format : AAC LC
Format/Info : Advanced Audio Codec Low Complexity
Codec ID : mp4a-40-2
Duration : 22 min 53 s
Bit rate mode : Variable
Bit rate : 61.4 kb/s
Maximum bit rate : 64.1 kb/s
Channel(s) : 2 channels
Channel layout : L R
Sampling rate : 48.0 kHz
Frame rate : 46.875 FPS (1024 SPF)
Compression mode : Lossy
Stream size : 10.1 MiB (1%)
Default : Yes
Alternate group : 1

General
Complete name : C:\Users\tmanc\Downloads\Radhakrishn S01 1080p Web-DL - Magneto [Thugs]\S01 E021. Krishna Seeks Attention 1080p Web-DL - Magneto [Thugs].mp4
Format : MPEG-4
Format profile : Base Media
Codec ID : isom (isom/iso2/avc1/mp41)
File size : 744 MiB
Duration : 22 min 45 s
Overall bit rate mode : Variable
Overall bit rate : 4 567 kb/s
Frame rate : 25.000 FPS
Writing application : Lavf58.46.101

Video
ID : 1
Format : AVC
Format/Info : Advanced Video Codec: Format profile : Main@L4
Format settings : CABAC / 1 Ref Frames
Format settings, CABAC : Yes
Format settings, Reference frames : 1 frame
Format settings, GOP : M=1, N=100
Codec ID : avc1
Codec ID/Info : Advanced Video Coding
Duration : 22 min 45 s
Bit rate mode : Constant
Bit rate : 4 500 kb/s
Width : 1 920 pixels
Height : 1 080 pixels
Display aspect ratio : 16:9
Frame rate mode : Constant
Frame rate : 25.000 FPS
Color space : YUV
Chroma subsampling : 4:2:0
Bit depth : 8 bits
Scan type : Progressive
Bits/(Pixel*Frame) : 0.087
Stream size : 733 MiB (99%)
Codec configuration box : avcC

Audio
ID : 2
Format : AAC LC
Format/Info : Advanced Audio Codec Low Complexity
Codec ID : mp4a-40-2
Duration : 22 min 45 s
Bit rate mode : Variable
Bit rate : 61.4 kb/s
Maximum bit rate : 64.1 kb/s
Channel(s) : 2 channels
Channel layout : L R
Sampling rate : 48.0 kHz
Frame rate : 46.875 FPS (1024 SPF)
Compression mode : Lossy
Stream size : 9.99 MiB (1%)
Default : Yes
Alternate group : 1

General
Complete name : C:\Users\tmanc\Downloads\Radhakrishn S01 1080p Web-DL - Magneto [Thugs]\S01 E022. Vrishbhan Ensures Krishna's Safety 1080p Web-DL - Magneto [Thugs].mp4
Format : MPEG-4
Format profile : Base Media
Codec ID : isom (isom/iso2/avc1/mp41)
File size : 746 MiB
Duration : 22 min 50 s
Overall bit rate mode : Variable
Overall bit rate : 4 567 kb/s
Frame rate : 25.000 FPS
Writing application : Lavf58.46.101

Video
ID : 1
Format : AVC
Format/Info : Advanced Video Codec: Format profile : Main@L4
Format settings : CABAC / 1 Ref Frames
Format settings, CABAC : Yes
Format settings, Reference frames : 1 frame
Format settings, GOP : M=1, N=100
Codec ID : avc1
Codec ID/Info : Advanced Video Coding
Duration : 22 min 50 s
Bit rate mode : Constant
Bit rate : 4 500 kb/s
Width : 1 920 pixels
Height : 1 080 pixels
Display aspect ratio : 16:9
Frame rate mode : Constant
Frame rate : 25.000 FPS
Color space : YUV
Chroma subsampling : 4:2:0
Bit depth : 8 bits
Scan type : Progressive
Bits/(Pixel*Frame) : 0.087
Stream size : 735 MiB (99%)
Codec configuration box : avcC

Audio
ID : 2
Format : AAC LC
Format/Info : Advanced Audio Codec Low Complexity
Codec ID : mp4a-40-2
Duration : 22 min 50 s
Bit rate mode : Variable
Bit rate : 61.4 kb/s
Maximum bit rate : 64.1 kb/s
Channel(s) : 2 channels
Channel layout : L R
Sampling rate : 48.0 kHz
Frame rate : 46.875 FPS (1024 SPF)
Compression mode : Lossy
Stream size : 10.0 MiB (1%)
Default : Yes
Alternate group : 1

General
Complete name : C:\Users\tmanc\Downloads\Radhakrishn S01 1080p Web-DL - Magneto [Thugs]\S01 E023. Krishna Fights the Army 1080p Web-DL - Magneto [Thugs].mp4
Format : MPEG-4
Format profile : Base Media
Codec ID : isom (isom/iso2/avc1/mp41)
File size : 749 MiB
Duration : 22 min 55 s
Overall bit rate mode : Variable
Overall bit rate : 4 567 kb/s
Frame rate : 25.000 FPS
Writing application : Lavf58.46.101

Video
ID : 1
Format : AVC
Format/Info : Advanced Video Codec: Format profile : Main@L4
Format setti

Files