Public Affairs Office in the Sky S01 1080p NF WEB-DL DDP2 0 H 264-XEBEC

Inaba Rika is a director at Teito TV Network. Ever since her childhood it was been her dream to be a reporter. Yet she frequently causes troubles due to her aggressive interviewing style and eventually gets transferred against her will to be the co-director of an evening information programme. She is put in charge of a special feature on uniformed personnel and ordered to interview the Self Defence Forces. First Lieutenant Sorai Daisuke became a fighter pilot but injured his foot in an accident and got assigned to a department which he was unprepared for, the Air Staff Office's Public Relations Department. Ever since the accident, he has never once shown his feelings. However, Daisuke's superior Sagisaka saw through his "e;benign, mild"e; facade and placed Rika in his care even though the people around him said he was still not ready for it. It chafes at Rika to have her dream destroyed and she psyches herself for a comeback as a reporter by getting a scoop. With that in mind, she is constantly provocative in her speech and conduct towards the members of the Public Relations Department, especially Daisuke. And she says something to Daisuke that she never should...

Genre: Drama, Comedy, Romance
Stars: Yui Aragaki, Gou Ayano, Kyohei Shibata

General
Unique ID : 70992952135789440054413007994424750368 (0x3568BEC7C746155857D8BF4EAC2D7120)
Complete name : Public.Affairs.Office.in.the.Sky.S01E01.Episode.1.1080p.NF.WEB-DL.DDP2.0.H.264-XEBEC.mkv
Format : Matroska
Format version : Version 4
File size : 2.46 GiB
Duration : 1 h 8 min
Overall bit rate mode : Variable
Overall bit rate : 5 125 kb/s
Writing application : mkvmerge v84.0 ('Sleeper') 64-bit
Writing library : libebml v1.4.5 + libmatroska v1.7.1

Video
ID : 1
Format : AVC
Format/Info : Advanced Video Codec: Format profile : Main@L4
Format settings : CABAC / 3 Ref Frames
Format settings, CABAC : Yes
Format settings, Reference frames : 3 frames
Codec ID : V_MPEG4/ISO/AVC
Duration : 1 h 8 min
Bit rate mode : Variable
Bit rate : 5 000 kb/s
Maximum bit rate : 7 500 kb/s
Width : 1 920 pixels
Height : 1 080 pixels
Display aspect ratio : 16:9
Frame rate mode : Constant
Frame rate : 29.970 (29970/1000) FPS
Original frame rate : 29.970 (30000/1001) FPS
Color space : YUV
Chroma subsampling : 4:2:0
Bit depth : 8 bits
Scan type : Progressive
Bits/(Pixel*Frame) : 0.080
Stream size : 2.40 GiB (97%)
Writing library : x264 core 148 r2727 7d026e8
Encoding settings : cabac=1 / ref=3 / deblock=1:0:0 / analyse=0x1:0x111 / me=umh / subme=10 / psy=1 / psy_rd=1.00:0.00 / mixed_ref=1 / me_range=24 / chroma_me=1 / trellis=2 / 8x8dct=0 / cqm=0 / deadzone=21,11 / fast_pskip=1 / chroma_qp_offset=-2 / threads=6 / lookahead_threads=1 / sliced_threads=0 / nr=0 / decimate=1 / interlaced=0 / bluray_compat=0 / stitchable=1 / constrained_intra=0 / bframes=2 / b_pyramid=0 / b_adapt=2 / b_bias=0 / direct=3 / weightb=1 / open_gop=0 / weightp=2 / keyint=300 / keyint_min=151 / scenecut=0 / intra_refresh=0 / rc_lookahead=60 / rc=2pass / mbtree=1 / bitrate=5000 / ratetol=1.0 / qcomp=0.50 / qpmin=6 / qpmax=51 / qpstep=4 / cplxblur=20.0 / qblur=0.5 / vbv_maxrate=7500 / vbv_bufsize=10000 / nal_hrd=vbr / filler=0 / ip_ratio=1.40 / aq=1:1.00
Default : Yes
Forced : No

Audio
ID : 2
Format : E-AC-3
Format/Info : Enhanced AC-3
Commercial name : Dolby Digital Plus
Codec ID : A_EAC3
Duration : 1 h 8 min
Bit rate mode : Constant
Bit rate : 128 kb/s
Channel(s) : 2 channels
Channel layout : L R
Sampling rate : 48.0 kHz
Frame rate : 31.250 FPS (1536 SPF)
Compression mode : Lossy
Stream size : 62.9 MiB (2%)
Title : Japanese
Language : Japanese
Service kind : Complete Main
Default : Yes
Forced : No

Text #1
ID : 3
Format : UTF-8
Codec ID : S_TEXT/UTF8
Codec ID/Info : UTF-8 Plain Text
Duration : 1 h 8 min
Bit rate : 59 b/s
Count of elements : 979
Stream size : 29.7 KiB (0%)
Title : English
Language : English
Default : No
Forced : No

Text #2
ID : 4
Format : UTF-8
Codec ID : S_TEXT/UTF8
Codec ID/Info : UTF-8 Plain Text
Duration : 1 h 8 min
Bit rate : 99 b/s
Count of elements : 983
Stream size : 49.7 KiB (0%)
Title : Arabic
Language : Arabic
Default : No
Forced : No

Text #3
ID : 5
Format : UTF-8
Codec ID : S_TEXT/UTF8
Codec ID/Info : UTF-8 Plain Text
Duration : 1 h 8 min
Bit rate : 67 b/s
Count of elements : 982
Stream size : 33.7 KiB (0%)
Title : German
Language : German
Default : No
Forced : No

Text #4
ID : 6
Format : UTF-8
Codec ID : S_TEXT/UTF8
Codec ID/Info : UTF-8 Plain Text
Duration : 1 h 8 min
Bit rate : 62 b/s
Count of elements : 982
Stream size : 31.3 KiB (0%)
Title : Spanish
Language : Spanish
Default : No
Forced : No

Text #5
ID : 7
Format : UTF-8
Codec ID : S_TEXT/UTF8
Codec ID/Info : UTF-8 Plain Text
Duration : 1 h 8 min
Bit rate : 67 b/s
Count of elements : 978
Stream size : 34.1 KiB (0%)
Title : Spanish
Language : Spanish
Default : No
Forced : No

Text #6
ID : 8
Format : UTF-8
Codec ID : S_TEXT/UTF8
Codec ID/Info : UTF-8 Plain Text
Duration : 1 h 8 min
Bit rate : 64 b/s
Count of elements : 982
Stream size : 32.6 KiB (0%)
Title : French
Language : French
Default : No
Forced : No

Text #7
ID : 9
Format : UTF-8
Codec ID : S_TEXT/UTF8
Codec ID/Info : UTF-8 Plain Text
Duration : 1 h 8 min
Bit rate : 60 b/s
Count of elements : 978
Stream size : 30.4 KiB (0%)
Title : Indonesian
Language : Indonesian
Default : No
Forced : No

Text #8
ID : 10
Format : UTF-8
Codec ID : S_TEXT/UTF8
Codec ID/Info : UTF-8 Plain Text
Duration : 1 h 8 min
Bit rate : 64 b/s
Count of elements : 981
Stream size : 32.5 KiB (0%)
Title : Italian
Language : Italian
Default : No
Forced : No

Text #9
ID : 11
Format : UTF-8
Codec ID : S_TEXT/UTF8
Codec ID/Info : UTF-8 Plain Text
Duration : 1 min 4 s
Bit rate : 42 b/s
Count of elements : 12
Stream size : 341 Bytes (0%)
Title : Japanese (Forced)
Language : Japanese
Default : Yes
Forced : Yes

Text #10
ID : 12
Format : UTF-8
Codec ID : S_TEXT/UTF8
Codec ID/Info : UTF-8 Plain Text
Duration : 1 h 8 min
Bit rate : 66 b/s
Count of elements : 984
Stream size : 33.5 KiB (0%)
Title : Korean
Language : Korean
Default : No
Forced : No

Text #11
ID : 13
Format : UTF-8
Codec ID : S_TEXT/UTF8
Codec ID/Info : UTF-8 Plain Text
Duration : 1 h 8 min
Bit rate : 65 b/s
Count of elements : 976
Stream size : 32.7 KiB (0%)
Title : Malay (macrolanguage)
Language : Malay
Default : No
Forced : No

Text #12
ID : 14
Format : UTF-8
Codec ID : S_TEXT/UTF8
Codec ID/Info : UTF-8 Plain Text
Duration : 1 h 8 min
Bit rate : 64 b/s
Count of elements : 981
Stream size : 32.5 KiB (0%)
Title : Dutch
Language : Dutch
Default : No
Forced : No

Text #13
ID : 15
Format : UTF-8
Codec ID : S_TEXT/UTF8
Codec ID/Info : UTF-8 Plain Text
Duration : 1 h 8 min
Bit rate : 60 b/s
Count of elements : 979
Stream size : 30.3 KiB (0%)
Title : Polish
Language : Polish
Default : No
Forced : No

Text #14
ID : 16
Format : UTF-8
Codec ID : S_TEXT/UTF8
Codec ID/Info : UTF-8 Plain Text
Duration : 1 h 8 min
Bit rate : 61 b/s
Count of elements : 979
Stream size : 30.7 KiB (0%)
Title : Portuguese
Language : Portuguese
Default : No
Forced : No

Text #15
ID : 17
Format : UTF-8
Codec ID : S_TEXT/UTF8
Codec ID/Info : UTF-8 Plain Text
Duration : 1 h 8 min
Bit rate : 61 b/s
Count of elements : 982
Stream size : 30.7 KiB (0%)
Title : Romanian
Language : Romanian
Default : No
Forced : No

Text #16
ID : 18
Format : UTF-8
Codec ID : S_TEXT/UTF8
Codec ID/Info : UTF-8 Plain Text
Duration : 1 h 8 min
Bit rate : 145 b/s
Count of elements : 984
Stream size : 72.9 KiB (0%)
Title : Thai
Language : Thai
Default : No
Forced : No

Text #17
ID : 19
Format : UTF-8
Codec ID : S_TEXT/UTF8
Codec ID/Info : UTF-8 Plain Text
Duration : 1 h 8 min
Bit rate : 61 b/s
Count of elements : 961
Stream size : 30.8 KiB (0%)
Title : Turkish
Language : Turkish
Default : No
Forced : No

Text #18
ID : 20
Format : UTF-8
Codec ID : S_TEXT/UTF8
Codec ID/Info : UTF-8 Plain Text
Duration : 1 h 8 min
Bit rate : 84 b/s
Count of elements : 985
Stream size : 42.5 KiB (0%)
Title : Vietnamese
Language : Vietnamese
Default : No
Forced : No

Text #19
ID : 21
Format : UTF-8
Codec ID : S_TEXT/UTF8
Codec ID/Info : UTF-8 Plain Text
Duration : 1 h 8 min
Bit rate : 55 b/s
Count of elements : 980
Stream size : 27.7 KiB (0%)
Title : Simplified, Chinese
Language : Chinese
Default : No
Forced : No

Text #20
ID : 22
Format : UTF-8
Codec ID : S_TEXT/UTF8
Codec ID/Info : UTF-8 Plain Text
Duration : 1 h 8 min
Bit rate : 55 b/s
Count of elements : 977
Stream size : 27.9 KiB (0%)
Title : Traditional, Chinese
Language : Chinese
Default : No
Forced : No

Menu
00:00:00.000 : en:Part 01
01:08:12.450 : en:Credits

Report created by : MediaInfoLib - v21.03

Files