Eigen kweek S01-S03 + Special 1080p WEB-DL DDP 2 0 H264-WildBrian

In the west Flemish city of Wijtschate, Jos and his son Steven are growing cannabis instead of potatoes to save their own business.

Genre: Drama, Comedy, Family
Stars: Maaike Cafmeyer, Dirk Van Dijck, Sebastien Dewaele, Sien Eggers, Wim Willaert, Rhoda Montemayor, Liesa Naert, Wouter Bruneel, Rudi Delhem, Theodosia Tadiar, Peter Van den Begin, Mathias Sercu, Thomas Ryckewaert

Format : MPEG-4
Format profile : Base Media
Codec ID : isom (isom/iso2/avc1/mp41)
File size : 1.57 GiB
Duration : 46 min 13 s
Overall bit rate : 4 870 kb/s
Frame rate : 25.000 FPS
Writing application : FlixGrab Plus

Video
ID : 1
Format : AVC
Format/Info : Advanced Video Codec: Format profile : High@L4
Format settings : CABAC / 3 Ref Frames
Format settings, CABAC : Yes
Format settings, Reference frames : 3 frames
Codec ID : avc1
Codec ID/Info : Advanced Video Coding
Duration : 46 min 13 s
Source duration : 3 min 16 s
Bit rate : 4 737 kb/s
Width : 1 920 pixels
Height : 1 080 pixels
Display aspect ratio : 16:9
Frame rate mode : Constant
Frame rate : 25.000 FPS
Color space : YUV
Chroma subsampling : 4:2:0
Bit depth : 8 bits
Scan type : Progressive
Bits/(Pixel*Frame) : 0.091
Stream size : 1.53 GiB (97%)
Source stream size : 1.53 GiB (97%)
mdhd_Duration : 2773160
Codec configuration box : avcC

Audio
ID : 2
Format : E-AC-3
Format/Info : Enhanced AC-3
Commercial name : Dolby Digital Plus
Codec ID : ec-3
Duration : 46 min 13 s
Bit rate mode : Constant
Bit rate : 128 kb/s
Channel(s) : 2 channels
Channel layout : L R
Sampling rate : 48.0 kHz
Frame rate : 31.250 FPS (1536 SPF)
Compression mode : Lossy
Stream size : 42.3 MiB (3%)
Language : Dutch
Service kind : Complete Main
Default : Yes
Alternate group : 1

Files