The Whirlwind S01 DUAL 1080p WEBRip x265-KONTRAST

A whirlwind clash ensues when a deputy prime minister of economy stands against the prime minister who aims to uproot the corrupt powers that be.

Genre: Drama, Thriller
Stars: Sol Kyung Goo, Kim Hee Ae

General
Complete name : The.Whirlwind.S01E01.DUAL.1080p.WEBRip.x265-KONTRAST.mp4
Format : MPEG-4
Format profile : Base Media
Codec ID : isom (isom/iso2/mp41)
File size : 1.12 GiB
Duration : 55 min 13 s
Overall bit rate : 2 911 kb/s
Frame rate : 23.976 FPS
Movie name : The.Whirlwind.S01E01.DUAL.1080p.WEBRip.x265-KONTRAST
Writing application : KONTRAST

Video
ID : 1
Format : HEVC
Format/Info : High Efficiency Video Coding
Format profile : Main@L4@Main
Codec ID : hvc1
Codec ID/Info : High Efficiency Video Coding
Duration : 55 min 13 s
Bit rate : 2 460 kb/s
Width : 1 920 pixels
Height : 1 080 pixels
Display aspect ratio : 16:9
Frame rate mode : Constant
Frame rate : 23.976 (24000/1001) FPS
Color space : YUV
Chroma subsampling : 4:2:0
Bit depth : 8 bits
Scan type : Progressive
Bits/(Pixel*Frame) : 0.049
Stream size : 971 MiB (84%)
Title : KONTRAST
Color range : Limited
Color primaries : BT.709
Transfer characteristics : BT.709
Matrix coefficients : BT.709
Codec configuration box : hvcC

Audio #1
ID : 2
Format : AAC LC
Format/Info : Advanced Audio Codec Low Complexity
Codec ID : mp4a-40-2
Duration : 55 min 13 s
Source duration : 55 min 13 s
Source_Duration_LastFrame : -11 ms
Bit rate mode : Constant
Bit rate : 224 kb/s
Channel(s) : 6 channels
Channel layout : C L R Ls Rs LFE
Sampling rate : 48.0 kHz
Frame rate : 46.875 FPS (1024 SPF)
Compression mode : Lossy
Stream size : 88.5 MiB (8%)
Source stream size : 88.5 MiB (8%)
Title : KONTRAST
Language : Korean
Default : Yes
Alternate group : 1
mdhd_Duration : 3313184

Audio #2
ID : 3
Format : AAC LC
Format/Info : Advanced Audio Codec Low Complexity
Codec ID : mp4a-40-2
Duration : 55 min 13 s
Source duration : 55 min 13 s
Source_Duration_LastFrame : -11 ms
Bit rate mode : Constant
Bit rate : 218 kb/s
Channel(s) : 6 channels
Channel layout : C L R Ls Rs LFE
Sampling rate : 48.0 kHz
Frame rate : 46.875 FPS (1024 SPF)
Compression mode : Lossy
Stream size : 86.2 MiB (7%)
Source stream size : 86.2 MiB (7%)
Title : KONTRAST
Language : English
Default : No
Alternate group : 1
mdhd_Duration : 3313184

Files