Love In Chains S01 RUSSIAN ENSUBBED 1080p AMZN WEB-DL DDP2 0 H264-PlayWEB

Katerina Verbitskaya was raised as a noble lady with her godmother Anna Chervinskaya but for the whole world she was only the property of Peter Chervinsky. She falls in love with the nobleman Alexey Kosach who knows nothing about her origin. On the way to freedom and love, the serf maid will have to overcome a lot of trials.

Genre: Drama, Romance
Stars: , , , , , , , , , , , , , , , , ,

General
Complete name : Love.In.Chains.S01E01.1080p.AMZN.WEB-DL.DDP2.0.H.264-PlayWEB.mkv
Format : Matroska
Format version : Version 4
File size : 3.15 GiB
Duration : 49 min 15 s
Overall bit rate : 9 156 kb/s
Encoded date : UTC 2020-10-27 14:00:05
Writing application : mkvmerge v47.0.0 ('Black Flag') 64-bit
Writing library : libebml v1.3.10 + libmatroska v1.5.2

Video
ID : 1
Format : AVC
Format/Info : Advanced Video Codec: Format profile : High@L4
Format settings : CABAC / 4 Ref Frames
Format settings, CABAC : Yes
Format settings, Reference frames : 4 frames
Codec ID : V_MPEG4/ISO/AVC
Duration : 49 min 15 s
Bit rate mode : Constant
Bit rate : 8 930 kb/s
Nominal bit rate : 10 000 kb/s
Width : 1 920 pixels
Height : 1 080 pixels
Display aspect ratio : 16:9
Frame rate mode : Constant
Frame rate : 25.000 FPS
Color space : YUV
Chroma subsampling : 4:2:0
Bit depth : 8 bits
Scan type : Progressive
Bits/(Pixel*Frame) : 0.172
Stream size : 3.07 GiB (98%)
Default : Yes
Forced : No
Color range : Limited
Color primaries : BT.709
Transfer characteristics : BT.709
Matrix coefficients : BT.709

Audio
ID : 2
Format : E-AC-3
Format/Info : Enhanced AC-3
Commercial name : Dolby Digital Plus
Codec ID : A_EAC3
Duration : 49 min 15 s
Bit rate mode : Constant
Bit rate : 224 kb/s
Channel(s) : 2 channels
Channel layout : L R
Sampling rate : 48.0 kHz
Frame rate : 31.250 FPS (1536 SPF)
Compression mode : Lossy
Stream size : 78.9 MiB (2%)
Language : Russian
Service kind : Complete Main
Default : Yes
Forced : No

Text
ID : 3
Format : UTF-8
Codec ID : S_TEXT/UTF8
Codec ID/Info : UTF-8 Plain Text
Duration : 45 min 37 s
Bit rate : 56 b/s
Count of elements : 493
Stream size : 18.9 KiB (0%)
Title : SDH
Language : English
Default : No
Forced : No

Menu
00:00:00.000 : en:Studio Logo / en:Studio Logo / en:Studio Logo
00:00:06.000 : en:Opening Credits / en:Opening Credits / en:Opening Credits
00:00:48.000 : en:Scene 3 / en:Scene 3 / en:Scene 3
00:18:07.000 : en:Scene 4 / en:Scene 4 / en:Scene 4
00:30:41.000 : en:Scene 5 / en:Scene 5 / en:Scene 5
00:47:33.000 : en:End Credits / en:End Credits / en:End Credits

Files