Drunken Master 1978 EUREKA 1080p BluRay REMUX AVC PCM MONO - GHOSTFACE

An undisciplined boy must learn Drunken Fist Kung Fu in order to stop an assassin.

Year: 1978
Duration: 111 min
Release date: Thursday 5th October 1978
Genre: Comedy, Action

Rating

7.6/10
(11578 Votes)

0

Your Rating

Stars:
Jackie Chan, Siu Tien Yuen, Jang Lee Hwang, Siu Hung Cham

Format : Matroska
Format version : Version 4 / Version 2
File size : 30.1 GiB
Duration : 1 h 51 min
Overall bit rate mode : Variable
Overall bit rate : 38.7 Mb/s
Encoded date : UTC 2018-01-07 11:27:11
Writing application : mkvmerge v19.0.0 ('Brave Captain') 32-bit
Writing library : libebml v1.3.5 + libmatroska v1.4.8

Video
ID : 1
Format : AVC
Format/Info : Advanced Video Codec: Format profile : High@L4.1
Format settings, CABAC : Yes
Format settings, ReFrames : 3 frames
Codec ID : V_MPEG4/ISO/AVC
Duration : 1 h 51 min
Bit rate mode : Variable
Bit rate : 35.0 Mb/s
Maximum bit rate : 38.0 Mb/s
Width : 1 920 pixels
Height : 1 080 pixels
Display aspect ratio : 16:9
Frame rate mode : Constant
Frame rate : 23.976 (24000/1001) FPS
Color space : YUV
Chroma subsampling : 4:2:0
Bit depth : 8 bits
Scan type : Progressive
Bits/(Pixel*Frame) : 0.704
Stream size : 27.2 GiB (90%)
Writing library : x264 core 142 r2479kMod dd79a61
Encoding settings : cabac=1 / ref=4 / deblock=0:-1:-1 / analyse=0x3:0x133 / me=umh / subme=10 / psy=1 / fade_compensate=0.00 / psy_rd=1.00:0.15 / mixed_ref=1 / me_range=24 / chroma_me=1 / trellis=2 / 8x8dct=1 / cqm=1 / deadzone=21,11 / fast_pskip=0 / chroma_qp_offset=-3 / threads=12 / lookahead_threads=1 / sliced_threads=0 / slices=4 / nr=0 / decimate=1 / interlaced=0 / bluray_compat=1 / constrained_intra=0 / fgo=15 / bframes=3 / b_pyramid=1 / b_adapt=2 / b_bias=0 / direct=3 / weightb=1 / open_gop=1 / weightp=1 / keyint=24 / keyint_min=1 / scenecut=40 / intra_refresh=0 / rc_lookahead=24 / rc=abr / mbtree=0 / bitrate=35000 / ratetol=1.0 / qcomp=0.00 / qpmin=4 / qpmax=69 / qpstep=4 / vbv_maxrate=38000 / vbv_bufsize=28500 / nal_hrd=vbr / filler=0 / ip_ratio=1.40 / pb_ratio=1.13 / aq=1:0.50
Default : Yes
Forced : No
Color range : Limited
Color primaries : BT.709
Transfer characteristics : BT.709
Matrix coefficients : BT.709

Audio #1
ID : 2
Format : PCM
Codec ID : A_PCM/INT/LIT
Duration : 1 h 51 min
Bit rate mode : Constant
Bit rate : 1 152 kb/s
Sampling rate : 48.0 kHz
Frame rate : 32.000 FPS (1500 spf)
Bit depth : 24 bits
Stream size : 916 MiB (3%)
Language : Chinese
Default : Yes
Forced : No

Audio #2
ID : 3
Format : PCM
Codec ID : A_PCM/INT/LIT
Duration : 1 h 51 min
Bit rate mode : Constant
Bit rate : 1 152 kb/s
Sampling rate : 48.0 kHz
Frame rate : 32.000 FPS (1500 spf)
Bit depth : 24 bits
Stream size : 916 MiB (3%)
Language : Chinese
Default : No
Forced : No

Audio #3
ID : 4
Format : PCM
Codec ID : A_PCM/INT/LIT
Duration : 1 h 51 min
Bit rate mode : Constant
Bit rate : 1 152 kb/s
Sampling rate : 48.0 kHz
Frame rate : 32.000 FPS (1500 spf)
Bit depth : 24 bits
Stream size : 916 MiB (3%)
Language : English
Default : No
Forced : No

Audio #4
ID : 5
Format : AC-3
Format/Info : Audio Coding 3
Mode extension : CM (complete main)
Format settings, Endianness : Big
Codec ID : A_AC3
Duration : 1 h 51 min
Bit rate mode : Constant
Bit rate : 192 kb/s
Channel(s) : 2 channels
Channel positions : Front: L R
Sampling rate : 48.0 kHz
Frame rate : 31.250 FPS (1536 spf)
Bit depth : 16 bits
Compression mode : Lossy
Stream size : 153 MiB (0%)
Language : English
Default : No
Forced : No

Text #1
ID : 6
Format : PGS
Muxing mode : zlib
Codec ID : S_HDMV/PGS
Codec ID/Info : Picture based subtitle format used on BDs/HD-DVDs
Duration : 1 h 49 min
Bit rate : 18.2 kb/s
Count of elements : 1758
Stream size : 14.2 MiB (0%)
Language : English
Default : Yes
Forced : No

Text #2
ID : 7
Format : PGS
Muxing mode : zlib
Codec ID : S_HDMV/PGS
Codec ID/Info : Picture based subtitle format used on BDs/HD-DVDs
Duration : 1 h 46 min
Bit rate : 16.8 kb/s
Count of elements : 1580
Stream size : 12.8 MiB (0%)
Language : English
Default : No
Forced : No

Text #3
ID : 8
Format : PGS
Muxing mode : zlib
Codec ID : S_HDMV/PGS
Codec ID/Info : Picture based subtitle format used on BDs/HD-DVDs
Duration : 1 h 49 min
Bit rate : 32.2 kb/s
Count of elements : 1800
Stream size : 25.2 MiB (0%)
Language : English
Default : No
Forced : No

Text #4
ID : 9
Format : PGS
Muxing mode : zlib
Codec ID : S_HDMV/PGS
Codec ID/Info : Picture based subtitle format used on BDs/HD-DVDs
Duration : 1 h 50 min
Bit rate : 25.0 kb/s
Count of elements : 2354
Stream size : 19.7 MiB (0%)
Language : English
Default : No
Forced : No

Files