Benedetta 2021 1080p BluRay REMUX AVC DTS-HD MA 5 1-PiRAMiDHEAD

A 17th-century nun in Italy suffers from disturbing religious and erotic visions. She is assisted by a companion, and the relationship between the two women develops into a romantic love affair.

Year: 2021
Duration: 131 min
Release date: Friday 9th July 2021
Genre: Biography, Drama, History, Romance

Rating

6.7/10
(24205 Votes)

0

Your Rating

Stars:
Virginie Efira, Charlotte Rampling, Daphne Patakia, Lambert Wilson, Olivier Rabourdin, Louise Chevillotte, Hervé Pierre, Clotilde Courau

General
Unique ID : 263037958236720258843489729345168773767 (0xC5E3449D7943F99B89121A396A6A9287)
Complete name : Benedetta.2021.1080p.BluRay.REMUX.AVC.DTS-HD.MA.5.1-PiRAMiDHEAD.mkv
Format : Matroska
Format version : Version 4
File size : 28.4 GiB
Duration : 2 h 11 min
Overall bit rate mode : Variable
Overall bit rate : 31.0 Mb/s
Frame rate : 23.976 FPS
Movie name : Benedetta (2021)
Encoded date : 2024-07-01 23:00:56 UTC
Writing application : mkvmerge v83.0 ('Circle Of Friends') 64-bit
Writing library : libebml v1.4.5 + libmatroska v1.7.1
IMDB : tt6823148
TMDB : movie/125057

Video
ID : 1
Format : AVC
Format/Info : Advanced Video Codec: Format profile : High@L4.1
Format settings : CABAC / 3 Ref Frames
Format settings, CABAC : Yes
Format settings, Reference frames : 3 frames
Codec ID : V_MPEG4/ISO/AVC
Duration : 2 h 11 min
Bit rate mode : Variable
Bit rate : 27.3 Mb/s
Maximum bit rate : 38.0 Mb/s
Width : 1 920 pixels
Height : 1 080 pixels
Display aspect ratio : 16:9
Frame rate mode : Constant
Frame rate : 23.976 (24000/1001) FPS
Color space : YUV
Chroma subsampling : 4:2:0
Bit depth : 8 bits
Scan type : Progressive
Bits/(Pixel*Frame) : 0.549
Stream size : 25.0 GiB (88%)
Title : MPEG-4 AVC Video / 27301 kbps / 1080p / 23.976 fps / 16:9 / High Profile 4.1
Language : French
Default : Yes
Forced : No
Color range : Limited
Color primaries : BT.709
Transfer characteristics : BT.709
Matrix coefficients : BT.709
Source : Koch Media GER Blu-ray

Audio
ID : 2
Format : DTS XLL
Format/Info : Digital Theater Systems
Commercial name : DTS-HD Master Audio
Codec ID : A_DTS
Duration : 2 h 11 min
Bit rate mode : Variable
Bit rate : 3 642 kb/s
Channel(s) : 6 channels
Channel layout : C L R Ls Rs LFE
Sampling rate : 48.0 kHz
Frame rate : 93.750 FPS (512 SPF)
Bit depth : 24 bits
Compression mode : Lossless
Stream size : 3.34 GiB (12%)
Title : DTS-HD Master Audio / 5.1 / 48 kHz / 3642 kbps / 24-bit
Language : French
Default : Yes
Forced : No
Source : Pathe Distribution FRA Blu-ray

Text #1
ID : 3
Format : PGS
Muxing mode : zlib
Codec ID : S_HDMV/PGS
Codec ID/Info : Picture based subtitle format used on BDs/HD-DVDs
Duration : 2 h 3 min
Bit rate : 20.0 kb/s
Frame rate : 0.350 FPS
Count of elements : 2594
Stream size : 17.7 MiB (0%)
Language : English
Default : No
Forced : No
Source : Koch Media GER Blu-ray

Text #2
ID : 4
Format : UTF-8
Codec ID : S_TEXT/UTF8
Codec ID/Info : UTF-8 Plain Text
Duration : 2 h 3 min
Bit rate : 34 b/s
Frame rate : 0.175 FPS
Count of elements : 1297
Stream size : 31.2 KiB (0%)
Title : OCR
Language : English
Default : No
Forced : No
Source : Koch Media GER Blu-ray

Text #3
ID : 5
Format : PGS
Muxing mode : zlib
Codec ID : S_HDMV/PGS
Codec ID/Info : Picture based subtitle format used on BDs/HD-DVDs
Duration : 2 h 3 min
Bit rate : 16.2 kb/s
Frame rate : 0.330 FPS
Count of elements : 2446
Stream size : 14.3 MiB (0%)
Language : English (GB)
Default : No
Forced : No
Source : MUBI UK Blu-ray

Text #4
ID : 6
Format : PGS
Muxing mode : zlib
Codec ID : S_HDMV/PGS
Codec ID/Info : Picture based subtitle format used on BDs/HD-DVDs
Duration : 2 h 10 min
Bit rate : 20.3 kb/s
Frame rate : 0.408 FPS
Count of elements : 3194
Stream size : 19.0 MiB (0%)
Title : SDH
Language : English (GB)
Default : No
Forced : No
Source : MUBI UK Blu-ray

Text #5
ID : 7
Format : PGS
Muxing mode : zlib
Codec ID : S_HDMV/PGS
Codec ID/Info : Picture based subtitle format used on BDs/HD-DVDs
Duration : 2 h 11 min
Bit rate : 28.5 kb/s
Frame rate : 0.543 FPS
Count of elements : 4266
Stream size : 26.7 MiB (0%)
Language : French
Default : No
Forced : No
Source : Koch Media GER Blu-ray

Text #6
ID : 8
Format : PGS
Muxing mode : zlib
Codec ID : S_HDMV/PGS
Codec ID/Info : Picture based subtitle format used on BDs/HD-DVDs
Duration : 2 h 11 min
Bit rate : 26.7 kb/s
Frame rate : 0.543 FPS
Count of elements : 4268
Stream size : 25.1 MiB (0%)
Title : SDH
Language : French
Default : No
Forced : No
Source : Pathe Distribution FRA Blu-ray

Text #7
ID : 9
Format : PGS
Muxing mode : zlib
Codec ID : S_HDMV/PGS
Codec ID/Info : Picture based subtitle format used on BDs/HD-DVDs
Duration : 2 h 2 min
Bit rate : 24.5 kb/s
Frame rate : 0.296 FPS
Count of elements : 2170
Stream size : 21.4 MiB (0%)
Language : German
Default : No
Forced : No
Source : Koch Media GER Blu-ray

Text #8
ID : 10
Format : PGS
Muxing mode : zlib
Codec ID : S_HDMV/PGS
Codec ID/Info : Picture based subtitle format used on BDs/HD-DVDs
Duration : 2 h 2 min
Bit rate : 12.1 kb/s
Frame rate : 0.323 FPS
Count of elements : 2378
Stream size : 10.6 MiB (0%)
Language : Italian
Default : No
Forced : No
Source : Sound Mirror ITA Blu-ray

Menu
00:00:00.000 : Chapter 01
00:11:37.833 : Chapter 02
00:17:16.417 : Chapter 03
00:24:26.250 : Chapter 04
00:34:00.500 : Chapter 05
00:45:05.583 : Chapter 06
00:53:04.750 : Chapter 07
01:02:16.292 : Chapter 08
01:13:01.667 : Chapter 09
01:22:49.833 : Chapter 10
01:30:23.458 : Chapter 11
01:36:28.458 : Chapter 12
01:43:51.167 : Chapter 13
01:54:05.583 : Chapter 14
02:01:46.083 : Chapter 15

ReportBy : MediaInfoLib - v23.10

Files