Infernal Affairs (2002) (2160p UHD BluRay x265 HDR DDP 5 1 DUAL - DiscoD HONE)

A story between a mole in the police department and an undercover cop. Their objectives are the same: to find out who is the mole, and who is the cop.

Year: 2002
Duration: 101 min
Release date: Thursday 12th December 2002
Genre: Crime, Mystery, Thriller

Rating

8.1/10
(49720 Votes)

0

Your Rating

Stars:
Andy Lau, Tony Leung Chiu Wai, Anthony Wong Chau-Sang, Eric Tsang

Enjoy!!
Source : Infernal.Affairs.2002.2160p.UHD.BluRay.Remux.HEVC.DTS-HD.MA.5.1-WaLKAFaLKA 52.8GB(Thanks!!)

This File is HDR ONLY
x265 [INFO]: tools: deblock(tC=-3:B=-3)
x265 [INFO]: frame I: 1584, Avg QP:11.90 kb/s: 65792.68
x265 [INFO]: frame P: 36517, Avg QP:11.97 kb/s: 39326.18
x265 [INFO]: frame B: 107060, Avg QP:15.88 kb/s: 13139.75
x265 [INFO]: Weighted P-Frames: Y:5.2% UV:4.0%
encoded 145161 frames in 66386.46s (2.19 fps), 20301.82 kb/s, Avg QP:14.85

General
Unique ID : 187963111383549573224811074104239386393 (0x8D6860E31B618152540279489E54EF19)
Complete name : Infernal Affairs (2002) (2160p UHD BluRay x265 HDR DDP 5.1 DUAL - DiscoD HONE).mkv
Format : Matroska
Format version : Version 4
File size : 15.8 GiB
Duration : 1 h 40 min
Overall bit rate : 22.5 Mb/s
Frame rate : 23.976 FPS
Movie name : Infernal Affairs (2002) 4K HDR HONE
Encoded date : 2024-07-02 07:23:11 UTC
Writing application : mkvmerge v84.0 ('Sleeper') 64-bit
Writing library : libebml v1.4.5 + libmatroska v1.7.1

Video
ID : 1
Format : HEVC
Format/Info : High Efficiency Video Coding
Format profile : Main 10@L5.1@High
HDR format : SMPTE ST 2086, HDR10 compatible
Codec ID : V_MPEGH/ISO/HEVC
Duration : 1 h 40 min
Bit rate : 20.3 Mb/s
Width : 3 840 pixels
Height : 1 632 pixels
Display aspect ratio : 2.35:1
Frame rate mode : Constant
Frame rate : 23.976 (24000/1001) FPS
Color space : YUV
Chroma subsampling : 4:2:0 (Type 2)
Bit depth : 10 bits
Bits/(Pixel*Frame) : 0.135
Stream size : 14.3 GiB (90%)
Writing library : x265 3.6+13+1-726aec126:[Windows][MSVC 1939][64 bit] 10bit
Encoding settings : cpuid=1111039 / frame-threads=3 / numa-pools=12 / wpp / no-pmode / no-pme / no-psnr / no-ssim / log-level=2 / input-csp=1 / input-res=3840x1632 / interlace=0 / total-frames=145161 / level-idc=51 / high-tier=1 / uhd-bd=0 / ref=4 / no-allow-non-conformance / repeat-headers / annexb / aud / no-eob / no-eos / hrd / info / hash=0 / temporal-layers=0 / no-open-gop / min-keyint=23 / keyint=253 / gop-lookahead=0 / bframes=4 / b-adapt=2 / b-pyramid / bframe-bias=0 / rc-lookahead=25 / lookahead-slices=4 / scenecut=40 / no-hist-scenecut / radl=0 / no-splice / no-intra-refresh / ctu=64 / min-cu-size=8 / rect / no-amp / max-tu-size=32 / tu-inter-depth=1 / tu-intra-depth=1 / limit-tu=0 / rdoq-level=1 / dynamic-rd=0.00 / no-ssim-rd / signhide / no-tskip / nr-intra=0 / nr-inter=0 / no-constrained-intra / strong-intra-smoothing / max-merge=3 / limit-refs=3 / limit-modes / me=3 / subme=3 / merange=57 / temporal-mvp / no-frame-dup / no-hme / weightp / no-weightb / no-analyze-src-pics / deblock=-3:-3 / no-sao / no-sao-non-deblock / rd=4 / selective-sao=0 / no-early-skip / rskip / no-fast-intra / no-tskip-fast / no-cu-lossless / no-b-intra / no-splitrd-skip / rdpenalty=0 / psy-rd=1.00 / psy-rdoq=3.00 / no-rd-refine / no-lossless / cbqpoffs=0 / crqpoffs=0 / rc=crf / crf=12.0 / qcomp=0.60 / qpstep=4 / stats-write=0 / stats-read=0 / vbv-maxrate=22000 / vbv-bufsize=44000 / vbv-init=0.9 / min-vbv-fullness=50.0 / max-vbv-fullness=80.0 / crf-max=0.0 / crf-min=0.0 / ipratio=1.40 / pbratio=1.30 / aq-mode=3 / aq-strength=1.00 / aq-bias-strength=1.00 / cutree / zone-count=0 / no-strict-cbr / qg-size=32 / no-rc-grain / qpmax=69 / qpmin=0 / no-const-vbv / sar=0 / overscan=0 / videoformat=5 / range=0 / colorprim=9 / transfer=16 / colormatrix=9 / chromaloc=1 / chromaloc-top=2 / chromaloc-bottom=2 / display-window=0 / master-display=G(8500,39850)B(6550,2300)R(35400,14600)WP(15635,16450)L(10000000,1) / cll=1000,400 / min-luma=0 / max-luma=1023 / log2-max-poc-lsb=8 / vui-timing-info / vui-hrd-info / slices=1 / no-opt-qp-pps / no-opt-ref-list-length-pps / no-multi-pass-opt-rps / scenecut-bias=0.05 / no-opt-cu-delta-qp / no-aq-motion / hdr10 / hdr10-opt / no-dhdr10-opt / no-idr-recovery-sei / analysis-reuse-level=0 / analysis-save-reuse-level=0 / analysis-load-reuse-level=0 / scale-factor=0 / refine-intra=0 / refine-inter=0 / refine-mv=1 / refine-ctu-distortion=0 / no-limit-sao / ctu-info=0 / no-lowpass-dct / refine-analysis-type=0 / copy-pic=1 / max-ausize-factor=1.0 / no-dynamic-refine / no-single-sei / no-hevc-aq / no-svt / no-field / qp-adaptation-range=1.00 / scenecut-aware-qp=0 / conformance-window-offsets / right=0 / bottom=0 / decoder-max-rate=0 / no-vbv-live-multi-pass / no-mcstf / no-sbrc
Default : Yes
Forced : No
Color range : Limited
Color primaries : BT.2020
Transfer characteristics : PQ
Matrix coefficients : BT.2020 non-constant
Mastering display color primaries : BT.2020
Mastering display luminance : min: 0.0001 cd/m2, max: 1000 cd/m2
Maximum Content Light Level : 1000 cd/m2
Maximum Frame-Average Light Level : 400 cd/m2

Audio #1
ID : 2
Format : E-AC-3
Format/Info : Enhanced AC-3
Commercial name : Dolby Digital Plus
Codec ID : A_EAC3
Duration : 1 h 40 min
Bit rate mode : Constant
Bit rate : 960 kb/s
Channel(s) : 6 channels
Channel layout : L R C LFE Ls Rs
Sampling rate : 48.0 kHz
Frame rate : 31.250 FPS (1536 SPF)
Compression mode : Lossy
Delay relative to video : 1 ms
Stream size : 693 MiB (4%)
Title : Cantonese DDP 5.1
Language : Chinese
Service kind : Complete Main
Default : Yes
Forced : No

Audio #2
ID : 3
Format : E-AC-3
Format/Info : Enhanced AC-3
Commercial name : Dolby Digital Plus
Codec ID : A_EAC3
Duration : 1 h 40 min
Bit rate mode : Constant
Bit rate : 960 kb/s
Channel(s) : 6 channels
Channel layout : L R C LFE Ls Rs
Sampling rate : 48.0 kHz
Frame rate : 31.250 FPS (1536 SPF)
Compression mode : Lossy
Delay relative to video : 1 ms
Stream size : 693 MiB (4%)
Title : English DDP 5.1
Language : English
Service kind : Complete Main
Default : No
Forced : No

Audio #3
ID : 4
Format : AC-3
Format/Info : Audio Coding 3
Commercial name : Dolby Digital
Codec ID : A_AC3
Duration : 1 h 40 min
Bit rate mode : Constant
Bit rate : 192 kb/s
Channel(s) : 2 channels
Channel layout : L R
Sampling rate : 48.0 kHz
Frame rate : 31.250 FPS (1536 SPF)
Compression mode : Lossy
Stream size : 139 MiB (1%)
Title : Cantonese / Commentary by Cast & Crew
Language : Chinese
Service kind : Complete Main
Default : No
Forced : No

Text #1
ID : 5
Format : PGS
Muxing mode : zlib
Codec ID : S_HDMV/PGS
Codec ID/Info : Picture based subtitle format used on BDs/HD-DVDs
Duration : 1 h 35 min
Bit rate : 32.7 kb/s
Frame rate : 0.307 FPS
Count of elements : 1750
Stream size : 22.2 MiB (0%)
Title : English
Language : English
Default : No
Forced : No

Text #2
ID : 6
Format : PGS
Muxing mode : zlib
Codec ID : S_HDMV/PGS
Codec ID/Info : Picture based subtitle format used on BDs/HD-DVDs
Duration : 1 h 35 min
Bit rate : 33.2 kb/s
Frame rate : 0.327 FPS
Count of elements : 1864
Stream size : 22.6 MiB (0%)
Title : English (SDH)
Language : English
Default : No
Forced : No

Text #3
ID : 7
Format : PGS
Muxing mode : zlib
Codec ID : S_HDMV/PGS
Codec ID/Info : Picture based subtitle format used on BDs/HD-DVDs
Duration : 1 h 37 min
Bit rate : 14.9 kb/s
Frame rate : 0.302 FPS
Count of elements : 1774
Stream size : 10.4 MiB (0%)
Title : French (Parisian)
Language : French
Default : No
Forced : No

Text #4
ID : 8
Format : PGS
Muxing mode : zlib
Codec ID : S_HDMV/PGS
Codec ID/Info : Picture based subtitle format used on BDs/HD-DVDs
Duration : 1 h 35 min
Bit rate : 32.0 kb/s
Frame rate : 0.296 FPS
Count of elements : 1690
Stream size : 21.8 MiB (0%)
Title : Spanish (Latin American)
Language : Spanish
Default : No
Forced : No

Text #5
ID : 9
Format : PGS
Muxing mode : zlib
Codec ID : S_HDMV/PGS
Codec ID/Info : Picture based subtitle format used on BDs/HD-DVDs
Duration : 1 h 35 min
Bit rate : 69.4 kb/s
Frame rate : 0.530 FPS
Count of elements : 3026
Stream size : 47.2 MiB (0%)
Title : English (Commentary)
Language : English
Default : No
Forced : No

Menu
00:00:00.000 : en:Cops And Gangsters
00:08:01.439 : en:Stereo Shop
00:13:52.707 : en:Hon Sam's Deal
00:20:40.739 : en:Codes
00:32:18.979 : en:Free To GO
00:35:03.310 : en:Mary's Novel
00:41:11.928 : en:The Envelope Of Names
00:46:02.593 : en:"e;Even Though He Is Good, He Has Done Bad Things"e;
00:52:25.476 : en:Twenty-Fourth Floor
01:03:46.656 : en:Crazy Keung
01:07:43.226 : en:Lau's Decision
01:19:32.351 : en:Done Playing Pretend
01:26:39.986 : en:Good Or Bad?

Files