Iron Monkey 1993 REMASTERED Eureka Blu-ray 1080p AVC DTS-HD MA 5 1-lingfriendly@OurBits

A doctor fights the corrupt authorities as a masked Robin Hood hero, even while another martial artist/doctor is forced to hunt for him.

Year: 1993
Duration: 85 min
Release date: Friday 12th October 2001
Genre: Action, Crime, Drama

Rating

7.5/10
(8706 Votes)

0

Your Rating

Stars:
Rongguang Yu, Donnie Yen, Jean Wang, Sze-Man Tsang

Filling a . This is the Eureka UK Blu-ray release.

https://www.imdb.com/title/tt0108148

A martial artist/doctor steals from the corrupt authorities as a masked thief to give to the poor while another martial artist/doctor is forced to hunt him down. But a major threat unites them as a powerful and traitorous shaolin monk takes over the authorities.

SPECIAL FEATURES
Stunning 1080p presentation from a brand new 2K restoration
Original Cantonese mono audio track (also available in 5.1 presentation)
5.1 English audio track
Isolated music & effects track
Interview with Donnie Yen (20 mins)
Interview with producer Tsui Hark (25 mins)
Interview with Yu Rong-kwong
Interview with Angie Tsang (20 mins)
Interview with stuntwoman and actress Li Fai (25 mins)
Iron Fist (16 mins) - a behind-the-scenes look at the action choreography of Iron Monkey
Shadow Boxing (8 mins) - a featurette on Hong Kong action choreography featuring Alex Yip
Footage of Li Fai and Angie Tsang competing at the 2003 Wu Shu Championships
Original theatrical trailer

Complete MediaInfo (sorry no BDInfo for this release):

General
ID : 0 (0x0)
Complete name : 00001.m2ts
Format : BDAV
Format/Info : Blu-ray Video
File size : 29.6 GiB
Duration : 1 h 30 min
Overall bit rate mode : Variable
Overall bit rate : 46.9 Mb/s
Maximum Overall bit rate : 48.0 Mb/s

Video
ID : 4113 (0x1011)
Menu ID : 1 (0x1)
Format : AVC
Format/Info : Advanced Video Codec: Format profile : High@L4.1
Format settings : CABAC / 3 Ref Frames
Format settings, CABAC : Yes
Format settings, RefFrames : 3 frames
Codec ID : 27
Duration : 1 h 30 min
Bit rate mode : Variable
Nominal bit rate : 32.0 Mb/s
Maximum bit rate : 32.0 Mb/s
Width : 1 920 pixels
Height : 1 080 pixels
Display aspect ratio : 16:9
Frame rate : 23.976 (24000/1001) FPS
Color space : YUV
Chroma subsampling : 4:2:0
Bit depth : 8 bits
Scan type : Progressive
Bits/(Pixel*Frame) : 0.644
Writing library : x264 core 148 r2705 3f5ed56
Encoding settings : cabac=1 / ref=4 / deblock=0:-1:-1 / analyse=0x3:0x133 / me=umh / subme=10 / psy=1 / psy_rd=1.00:0.15 / mixed_ref=1 / me_range=24 / chroma_me=1 / trellis=2 / 8x8dct=1 / cqm=0 / deadzone=21,11 / fast_pskip=1 / chroma_qp_offset=-3 / threads=12 / lookahead_threads=1 / sliced_threads=0 / slices=4 / nr=0 / decimate=1 / interlaced=0 / bluray_compat=1 / constrained_intra=0 / bframes=3 / b_pyramid=1 / b_adapt=2 / b_bias=0 / direct=3 / weightb=1 / open_gop=1 / weightp=1 / keyint=24 / keyint_min=1 / scenecut=40 / intra_refresh=0 / rc_lookahead=24 / rc=cbr / mbtree=0 / bitrate=32000 / ratetol=1.0 / qcomp=0.30 / qpmin=0 / qpmax=69 / qpstep=4 / vbv_maxrate=32000 / vbv_bufsize=30000 / nal_hrd=vbr / filler=0 / ip_ratio=1.40 / pb_ratio=1.30 / aq=1:0.40
Color range : Limited
Color primaries : BT.709
Transfer characteristics : BT.709
Matrix coefficients : BT.709

Audio #1
ID : 4352 (0x1100)
Menu ID : 1 (0x1)
Format : DTS
Format/Info : Digital Theater Systems
Format profile : MA / Core
Muxing mode : Stream extension
Codec ID : 134
Duration : 1 h 30 min
Bit rate mode : Variable / Constant
Bit rate : Unknown / 768 kb/s
Channel(s) : 6 channels
Channel positions : Front: L C R, Side: L R, LFE
Sampling rate : 48.0 kHz
Frame rate : 93.750 FPS (512 SPF)
Bit depth : 24 bits
Compression mode : Lossless / Lossy

Audio #2
ID : 4353 (0x1101)
Menu ID : 1 (0x1)
Format : PCM
Format settings : Big / Signed
Muxing mode : Blu-ray
Codec ID : 128
Duration : 1 h 30 min
Bit rate mode : Constant
Bit rate : 768 kb/s
Encoded bit rate : 1 536 kb/s
Channel(s) : 1 channel
Channel positions : Front: C
Sampling rate : 48.0 kHz
Bit depth : 16 bits
Stream size : 496 MiB (2%)

Audio #3
ID : 4354 (0x1102)
Menu ID : 1 (0x1)
Format : PCM
Format settings : Big / Signed
Muxing mode : Blu-ray
Codec ID : 128
Duration : 1 h 30 min
Bit rate mode : Constant
Bit rate : 1 536 kb/s
Channel(s) : 2 channels
Channel positions : Front: L R
Sampling rate : 48.0 kHz
Bit depth : 16 bits
Stream size : 992 MiB (3%)

Audio #4
ID : 4355 (0x1103)
Menu ID : 1 (0x1)
Format : DTS
Format/Info : Digital Theater Systems
Format profile : MA / Core
Muxing mode : Stream extension
Codec ID : 134
Duration : 1 h 30 min
Bit rate mode : Variable / Constant
Bit rate : Unknown / 768 kb/s
Channel(s) : 6 channels
Channel positions : Front: L C R, Side: L R, LFE
Sampling rate : 48.0 kHz
Frame rate : 93.750 FPS (512 SPF)
Bit depth : 24 bits
Compression mode : Lossless / Lossy

Audio #5
ID : 4356 (0x1104)
Menu ID : 1 (0x1)
Format : PCM
Format settings : Big / Signed
Muxing mode : Blu-ray
Codec ID : 128
Duration : 1 h 30 min
Bit rate mode : Constant
Bit rate : 768 kb/s
Encoded bit rate : 1 536 kb/s
Channel(s) : 1 channel
Channel positions : Front: C
Sampling rate : 48.0 kHz
Bit depth : 16 bits
Stream size : 496 MiB (2%)

Text #1
ID : 4608 (0x1200)
Menu ID : 1 (0x1)
Format : PGS
Codec ID : 144

Text #2
ID : 4609 (0x1201)
Menu ID : 1 (0x1)
Format : PGS
Codec ID : 144

Text #3
ID : 4610 (0x1202)
Menu ID : 1 (0x1)
Format : PGS
Codec ID : 144

Text #4
ID : 4611 (0x1203)
Menu ID : 1 (0x1)
Format : PGS
Codec ID : 144

Text #5
ID : 4612 (0x1204)
Menu ID : 1 (0x1)
Format : PGS
Codec ID : 144

Text #6
ID : 4613 (0x1205)
Menu ID : 1 (0x1)
Format : PGS
Codec ID : 144

Files