Junior Bonner 1972 1080p BluRay REMUX AVC DTS-HD MA 2.0-edwood

Ace Bonner returns to Arizona several years after he abandoned his family, Junior Bonner is a wild young man. Against the typical rodeo championship, family drama erupts.

Year: 1972
Duration: 100 min
Release date: Thursday 31st May 1973
Genre: Drama, Western

Rating

6.8/10
(4242 Votes)

0

Your Rating

Stars:
Steve McQueen, Robert Preston, Ida Lupino, Ben Johnson, Joe Don Baker, Barbara Leigh, Mary Murphy, Bill McKinney

General
Unique ID : 99595299957797781586350871693081247722 (0x4AED5B67AFFDB3476D02475BC1E0FFEA)
Complete name : Junior.Bonner.1972.1080p.BluRay.DTS-HD.2.0.AVC.REMUX-edwood.mkv
Format : Matroska
Format version : Version 2
File size : 20.8 GiB
Duration : 1 h 40 min
Overall bit rate mode : Variable
Overall bit rate : 29.7 Mb/s
Movie name : Junior Bonner (1972)
Encoded date : UTC 2024-06-25 23:45:51
Writing application : MakeMKV v1.17.7 linux(x64-release)
Writing library : libmakemkv v1.17.7 (1.3.10/1.5.2) x86_64-linux-gnu

Video
ID : 1
ID in the original source medium : 4113 (0x1011)
Format : AVC
Format/Info : Advanced Video Codec: Format profile : High@L4.1
Format settings : CABAC / 4 Ref Frames
Format settings, CABAC : Yes
Format settings, Reference frames : 4 frames
Codec ID : V_MPEG4/ISO/AVC
Duration : 1 h 40 min
Bit rate mode : Variable
Bit rate : 26.4 Mb/s
Maximum bit rate : 37.5 Mb/s
Width : 1 920 pixels
Height : 1 080 pixels
Display aspect ratio : 16:9
Frame rate mode : Constant
Frame rate : 23.976 (24000/1001) FPS
Color space : YUV
Chroma subsampling : 4:2:0
Bit depth : 8 bits
Scan type : Progressive
Bits/(Pixel*Frame) : 0.531
Stream size : 18.5 GiB (89%)
Language : English
Default : No
Forced : No
Original source medium : Blu-ray

Audio #1
ID : 2
ID in the original source medium : 4352 (0x1100)
Format : DTS XLL
Format/Info : Digital Theater Systems
Commercial name : DTS-HD Master Audio
Codec ID : A_DTS
Duration : 1 h 40 min
Bit rate mode : Variable
Bit rate : 1 559 kb/s
Channel(s) : 2 channels
Channel layout : L R
Sampling rate : 48.0 kHz
Frame rate : 93.750 FPS (512 SPF)
Bit depth : 16 bits
Compression mode : Lossless
Stream size : 1.09 GiB (5%)
Title : Stereo
Language : English
Default : Yes
Forced : No
Original source medium : Blu-ray

Audio #2
ID : 3
ID in the original source medium : 4352 (0x1100)
Format : DTS
Format/Info : Digital Theater Systems
Codec ID : A_DTS
Duration : 1 h 40 min
Bit rate mode : Constant
Bit rate : 1 509 kb/s
Channel(s) : 2 channels
Channel layout : L R
Sampling rate : 48.0 kHz
Frame rate : 93.750 FPS (512 SPF)
Bit depth : 16 bits
Compression mode : Lossy
Stream size : 1.06 GiB (5%)
Title : Stereo
Language : English
Default : No
Forced : No
Original source medium : Blu-ray

Audio #3
ID : 4
ID in the original source medium : 4353 (0x1101)
Format : AC-3
Format/Info : Audio Coding 3
Commercial name : Dolby Digital
Codec ID : A_AC3
Duration : 1 h 40 min
Bit rate mode : Constant
Bit rate : 192 kb/s
Channel(s) : 2 channels
Channel layout : L R
Sampling rate : 48.0 kHz
Frame rate : 31.250 FPS (1536 SPF)
Compression mode : Lossy
Stream size : 138 MiB (1%)
Title : Commentary
Language : English
Service kind : Complete Main
Default : No
Forced : No
Original source medium : Blu-ray

Text
ID : 5
ID in the original source medium : 4608 (0x1200)
Format : PGS
Codec ID : S_HDMV/PGS
Codec ID/Info : Picture based subtitle format used on BDs/HD-DVDs
Duration : 1 h 39 min
Bit rate : 24.9 kb/s
Count of elements : 2051
Stream size : 17.6 MiB (0%)
Language : English
Default : No
Forced : No
Original source medium : Blu-ray

Menu
00:00:00.000 : en:Chapter 00
00:14:38.252 : en:Chapter 01
00:25:17.140 : en:Chapter 02
00:38:55.249 : en:Chapter 03
00:51:33.924 : en:Chapter 04
01:10:43.739 : en:Chapter 05
01:25:13.358 : en:Chapter 06
01:29:50.134 : en:Chapter 07

Report created by : MediaInfoLib - v21.09

Files