Braveheart 1995 NORDiC 1080p REMUX BluRay AVC TrueHD 7 1 Atmos-NorTekst

William Wallace, a commoner, unites the 13th Century Scots in their battle to overthrow English rule.

Year: 1995
Duration: 177 min
Release date: Wednesday 24th May 1995
Genre: Action, Biography, Drama, History, War

Rating

8.4/10
(246691 Votes)

0

Your Rating

Stars:
James Robinson, Sean Lawlor, Sandy Nelson, James Cosmo

Braveheart.1995.NORDiC.1080p.REMUX..BluRay.AVC.TrueHD.7.1.Atmos-NorTekst
IMDB: https://www.imdb.com/title/tt0112573

Scottish warrior William Wallace leads his countrymen in a rebellion to free his homeland from the tyranny of King Edward I of England.
-----------------------
General
Unique ID : 65400738035868733022739389797029151878 (0x3133B9568BA9FE9FB220F81F49308486)
Complete name : Braveheart.1995.NORDiC.1080p.REMUX..BluRay.AVC.TrueHD.7.1.Atmos-NorTekst.mkv
Format : Matroska
Format version : Version 4
File size : 38.4 GiB
Duration : 2 h 57 min
Overall bit rate mode : Variable
Overall bit rate : 30.9 Mb/s
Frame rate : 23.976 FPS
Movie name : Braveheart.1995.NORDiC.1080p.REMUX..BluRay.AVC.TrueHD.7.1.Atmos-NorTekst
Encoded date : 2024-06-29 18:29:09 UTC
Writing application : mkvmerge v78.0 ('Running') 64-bit
Writing library : libebml v1.4.4 + libmatroska v1.7.1

Video
ID : 1
Format : AVC
Format/Info : Advanced Video Codec: Format profile : High@L4.1
Format settings : CABAC / 4 Ref Frames
Format settings, CABAC : Yes
Format settings, Reference frames : 4 frames
Format settings, Slice count : 4 slices per frame
Codec ID : V_MPEG4/ISO/AVC
Duration : 2 h 57 min
Bit rate mode : Variable
Bit rate : 25.8 Mb/s
Maximum bit rate : 39.4 Mb/s
Width : 1 920 pixels
Height : 1 080 pixels
Display aspect ratio : 16:9
Frame rate mode : Constant
Frame rate : 23.976 (24000/1001) FPS
Color space : YUV
Chroma subsampling : 4:2:0
Bit depth : 8 bits
Scan type : Progressive
Bits/(Pixel*Frame) : 0.518
Stream size : 32.0 GiB (83%)
Default : No
Forced : No
Color range : Limited
Color primaries : BT.709
Transfer characteristics : BT.709
Matrix coefficients : BT.709

Audio
ID : 2
Format : MLP FBA 16-ch
Format/Info : Meridian Lossless Packing FBA with 16-channel presentation
Commercial name : Dolby TrueHD with Dolby Atmos
Codec ID : A_TRUEHD
Duration : 2 h 57 min
Bit rate mode : Variable
Bit rate : 5 106 kb/s
Maximum bit rate : 8 013 kb/s
Channel(s) : 8 channels
Channel layout : L R C LFE Ls Rs Lb Rb
Sampling rate : 48.0 kHz
Frame rate : 1 200.000 FPS (40 SPF)
Compression mode : Lossless
Delay relative to video : 2 s 168 ms
Stream size : 6.34 GiB (17%)
Title : Engelsk TrueHD 7.1 Atmos
Language : English
Default : Yes
Forced : No
Number of dynamic objects : 11
Bed channel count : 1 channel
Bed channel configuration : LFE

Text #1
ID : 3
Format : UTF-8
Codec ID : S_TEXT/UTF8
Codec ID/Info : UTF-8 Plain Text
Duration : 2 h 48 min
Bit rate : 30 b/s
Frame rate : 0.113 FPS
Count of elements : 1150
Stream size : 38.1 KiB (0%)
Title : Engelsk
Language : English
Default : No
Forced : No

Text #2
ID : 4
Format : UTF-8
Codec ID : S_TEXT/UTF8
Codec ID/Info : UTF-8 Plain Text
Duration : 2 h 55 min
Bit rate : 29 b/s
Frame rate : 0.106 FPS
Count of elements : 1122
Stream size : 38.4 KiB (0%)
Title : Dansk
Language : Danish
Default : No
Forced : No

Text #3
ID : 5
Format : UTF-8
Codec ID : S_TEXT/UTF8
Codec ID/Info : UTF-8 Plain Text
Duration : 2 h 55 min
Bit rate : 31 b/s
Frame rate : 0.106 FPS
Count of elements : 1123
Stream size : 40.6 KiB (0%)
Title : Finsk
Language : Finnish
Default : No
Forced : No

Text #4
ID : 6
Format : UTF-8
Codec ID : S_TEXT/UTF8
Codec ID/Info : UTF-8 Plain Text
Duration : 2 h 55 min
Bit rate : 29 b/s
Frame rate : 0.106 FPS
Count of elements : 1122
Stream size : 37.7 KiB (0%)
Title : Norsk
Language : Norwegian
Default : No
Forced : No

Text #5
ID : 7
Format : UTF-8
Codec ID : S_TEXT/UTF8
Codec ID/Info : UTF-8 Plain Text
Duration : 2 h 55 min
Bit rate : 30 b/s
Frame rate : 0.106 FPS
Count of elements : 1120
Stream size : 39.6 KiB (0%)
Title : Svensk
Language : Swedish
Default : No
Forced : No

Menu
00:00:00.000 : Chapter 01
00:07:25.528 : Chapter 02
00:16:24.442 : Chapter 03
00:22:00.694 : Chapter 04
00:34:16.888 : Chapter 05
00:39:49.679 : Chapter 06
00:56:04.987 : Chapter 07
01:00:01.264 : Chapter 08
01:07:28.044 : Chapter 09
01:11:51.933 : Chapter 10
01:19:01.528 : Chapter 11
01:33:03.203 : Chapter 12
01:43:44.718 : Chapter 13
01:53:55.454 : Chapter 14
01:58:58.465 : Chapter 15
02:17:15.477 : Chapter 16
02:24:18.900 : Chapter 17
02:28:49.796 : Chapter 18
02:34:12.410 : Chapter 19
02:36:32.091 : Chapter 20
02:46:53.879 : Chapter 21
02:50:43.066 : Chapter 22
-----------------------
Source: RU4HD
Nordic Subs: Resync of SNOWS - Retail SRT

Enjoy :P

Files