The Aftermath 2019 2160p MA WEB-DL DTS-HD MA 5 1 HDR H 265-FLUX

Post World War II, a British colonel and his wife are assigned to live in Hamburg during the post-war reconstruction, but tensions arise with the German who previously owned the house.

Year: 2019
Duration: 108 min
Release date: Wednesday 1st May 2019
Genre: Drama, Romance, War

Rating

6.3/10
(20993 Votes)

0

Your Rating

Stars:
Keira Knightley, Ned Wills, Pandora Colin, Jason Clarke, Anna Katharina Schimrigk, Jack Laskey, Fionn O'Shea, Kate Phillips

General
Unique ID : 136282664328133277783776654929236109044 (0x6687161F2A47F0426A57B8B9D528A6F4)
Complete name : The.Aftermath.2019.2160p.MA.WEB-DL.DTS-HD.MA.5.1.HDR.H.265-FLUX.mkv
Format : Matroska
Format version : Version 4
File size : 21.7 GiB
Duration : 1 h 48 min
Overall bit rate mode : Variable
Overall bit rate : 28.6 Mb/s
Movie name : The Aftermath (2019)
Writing application : mkvmerge v83.0 ('Circle Of Friends') 64-bit
Writing library : libebml v1.4.5 + libmatroska v1.7.1
IMDB : tt5977276
TMDB : movie/433502

Video
ID : 1
Format : HEVC
Format/Info : High Efficiency Video Coding
Format profile : Main 10@L5@High
HDR format : SMPTE ST 2086, HDR10 compatible
Codec ID : V_MPEGH/ISO/HEVC
Duration : 1 h 48 min
Bit rate : 24.6 Mb/s
Width : 3 840 pixels
Height : 2 160 pixels
Display aspect ratio : 16:9
Frame rate mode : Constant
Frame rate : 23.976 (24000/1001) FPS
Color space : YUV
Chroma subsampling : 4:2:0 (Type 2)
Bit depth : 10 bits
Bits/(Pixel*Frame) : 0.124
Stream size : 18.6 GiB (86%)
Default : Yes
Forced : No
Color range : Limited
Color primaries : BT.2020
Transfer characteristics : PQ
Matrix coefficients : BT.2020 non-constant
Mastering display color primaries : Display P3
Mastering display luminance : min: 0.0050 cd/m2, max: 1000 cd/m2

Audio #1
ID : 2
Format : DTS XLL
Format/Info : Digital Theater Systems
Commercial name : DTS-HD Master Audio
Codec ID : A_DTS
Duration : 1 h 48 min
Bit rate mode : Variable
Bit rate : 3 313 kb/s
Channel(s) : 6 channels
Channel layout : C L R Ls Rs LFE
Sampling rate : 48.0 kHz
Frame rate : 93.750 FPS (512 SPF)
Bit depth : 24 bits
Compression mode : Lossless
Stream size : 2.51 GiB (12%)
Language : English
Default : Yes
Forced : No

Audio #2
ID : 3
Format : AC-3
Format/Info : Audio Coding 3
Commercial name : Dolby Digital
Codec ID : A_AC3
Duration : 1 h 48 min
Bit rate mode : Constant
Bit rate : 224 kb/s
Channel(s) : 2 channels
Channel layout : L R
Sampling rate : 48.0 kHz
Frame rate : 31.250 FPS (1536 SPF)
Compression mode : Lossy
Stream size : 174 MiB (1%)
Title : Commentary by director James Kent
Language : English
Service kind : Complete Main
Default : No
Forced : No

Text #1
ID : 4
Format : UTF-8
Codec ID : S_TEXT/UTF8
Codec ID/Info : UTF-8 Plain Text
Duration : 1 h 18 min
Bit rate : 2 b/s
Count of elements : 61
Stream size : 1.30 KiB (0%)
Title : Forced
Language : English
Default : Yes
Forced : Yes

Text #2
ID : 5
Format : UTF-8
Codec ID : S_TEXT/UTF8
Codec ID/Info : UTF-8 Plain Text
Duration : 1 h 39 min
Bit rate : 32 b/s
Count of elements : 962
Stream size : 23.8 KiB (0%)
Language : English
Default : No
Forced : No

Text #3
ID : 6
Format : UTF-8
Codec ID : S_TEXT/UTF8
Codec ID/Info : UTF-8 Plain Text
Duration : 1 h 41 min
Bit rate : 38 b/s
Count of elements : 1126
Stream size : 28.4 KiB (0%)
Title : SDH
Language : English
Default : No
Forced : No

Text #4
ID : 7
Format : PGS
Codec ID : S_HDMV/PGS
Codec ID/Info : Picture based subtitle format used on BDs/HD-DVDs
Duration : 1 h 48 min
Bit rate : 21.6 kb/s
Count of elements : 2254
Stream size : 16.8 MiB (0%)
Title : SDH | Positional
Language : English
Default : No
Forced : No

Text #5
ID : 8
Format : UTF-8
Codec ID : S_TEXT/UTF8
Codec ID/Info : UTF-8 Plain Text
Duration : 1 h 47 min
Bit rate : 43 b/s
Count of elements : 835
Stream size : 33.8 KiB (0%)
Language : Arabic
Default : No
Forced : No

Text #6
ID : 9
Format : UTF-8
Codec ID : S_TEXT/UTF8
Codec ID/Info : UTF-8 Plain Text
Duration : 1 h 47 min
Bit rate : 44 b/s
Count of elements : 825
Stream size : 34.9 KiB (0%)
Language : Bulgarian
Default : No
Forced : No

Text #7
ID : 10
Format : UTF-8
Codec ID : S_TEXT/UTF8
Codec ID/Info : UTF-8 Plain Text
Duration : 1 h 47 min
Bit rate : 27 b/s
Count of elements : 834
Stream size : 21.5 KiB (0%)
Language : Czech
Default : No
Forced : No

Text #8
ID : 11
Format : UTF-8
Codec ID : S_TEXT/UTF8
Codec ID/Info : UTF-8 Plain Text
Duration : 1 h 47 min
Bit rate : 27 b/s
Count of elements : 654
Stream size : 21.4 KiB (0%)
Language : Danish
Default : No
Forced : No

Text #9
ID : 12
Format : UTF-8
Codec ID : S_TEXT/UTF8
Codec ID/Info : UTF-8 Plain Text
Duration : 1 h 47 min
Bit rate : 27 b/s
Count of elements : 740
Stream size : 21.7 KiB (0%)
Language : German
Default : No
Forced : No

Text #10
ID : 13
Format : UTF-8
Codec ID : S_TEXT/UTF8
Codec ID/Info : UTF-8 Plain Text
Duration : 1 h 47 min
Bit rate : 48 b/s
Count of elements : 789
Stream size : 38.5 KiB (0%)
Language : Greek
Default : No
Forced : No

Text #11
ID : 14
Format : UTF-8
Codec ID : S_TEXT/UTF8
Codec ID/Info : UTF-8 Plain Text
Duration : 1 h 47 min
Bit rate : 28 b/s
Count of elements : 800
Stream size : 22.0 KiB (0%)
Title : Latin American
Language : Spanish
Default : No
Forced : No

Text #12
ID : 15
Format : UTF-8
Codec ID : S_TEXT/UTF8
Codec ID/Info : UTF-8 Plain Text
Duration : 1 h 47 min
Bit rate : 29 b/s
Count of elements : 857
Stream size : 23.0 KiB (0%)
Title : European
Language : Spanish
Default : No
Forced : No

Text #13
ID : 16
Format : UTF-8
Codec ID : S_TEXT/UTF8
Codec ID/Info : UTF-8 Plain Text
Duration : 1 h 47 min
Bit rate : 26 b/s
Count of elements : 823
Stream size : 20.6 KiB (0%)
Language : Estonian
Default : No
Forced : No

Text #14
ID : 17
Format : UTF-8
Codec ID : S_TEXT/UTF8
Codec ID/Info : UTF-8 Plain Text
Duration : 1 h 43 min
Bit rate : 27 b/s
Count of elements : 820
Stream size : 21.0 KiB (0%)
Language : Finnish
Default : No
Forced : No

Text #15
ID : 18
Format : UTF-8
Codec ID : S_TEXT/UTF8
Codec ID/Info : UTF-8 Plain Text
Duration : 1 h 47 min
Bit rate : 28 b/s
Count of elements : 832
Stream size : 22.4 KiB (0%)
Title : Canadian
Language : French
Default : No
Forced : No

Text #16
ID : 19
Format : UTF-8
Codec ID : S_TEXT/UTF8
Codec ID/Info : UTF-8 Plain Text
Duration : 1 h 47 min
Bit rate : 30 b/s
Count of elements : 832
Stream size : 24.3 KiB (0%)
Title : Parisian
Language : French
Default : No
Forced : No

Text #17
ID : 20
Format : UTF-8
Codec ID : S_TEXT/UTF8
Codec ID/Info : UTF-8 Plain Text
Duration : 1 h 47 min
Bit rate : 39 b/s
Count of elements : 823
Stream size : 30.8 KiB (0%)
Language : Hebrew
Default : No
Forced : No

Text #18
ID : 21
Format : UTF-8
Codec ID : S_TEXT/UTF8
Codec ID/Info : UTF-8 Plain Text
Duration : 1 h 47 min
Bit rate : 79 b/s
Count of elements : 823
Stream size : 62.4 KiB (0%)
Language : Hindi
Default : No
Forced : No

Text #19
ID : 22
Format : UTF-8
Codec ID : S_TEXT/UTF8
Codec ID/Info : UTF-8 Plain Text
Duration : 1 h 47 min
Bit rate : 25 b/s
Count of elements : 834
Stream size : 19.9 KiB (0%)
Language : Croatian
Default : No
Forced : No

Text #20
ID : 23
Format : UTF-8
Codec ID : S_TEXT/UTF8
Codec ID/Info : UTF-8 Plain Text
Duration : 1 h 47 min
Bit rate : 28 b/s
Count of elements : 835
Stream size : 22.3 KiB (0%)
Language : Hungarian
Default : No
Forced : No

Text #21
ID : 24
Format : UTF-8
Codec ID : S_TEXT/UTF8
Codec ID/Info : UTF-8 Plain Text
Duration : 1 h 47 min
Bit rate : 26 b/s
Count of elements : 832
Stream size : 21.1 KiB (0%)
Language : Indonesian
Default : No
Forced : No

Text #22
ID : 25
Format : UTF-8
Codec ID : S_TEXT/UTF8
Codec ID/Info : UTF-8 Plain Text
Duration : 1 h 47 min
Bit rate : 29 b/s
Count of elements : 786
Stream size : 23.3 KiB (0%)
Language : Icelandic
Default : No
Forced : No

Text #23
ID : 26
Format : UTF-8
Codec ID : S_TEXT/UTF8
Codec ID/Info : UTF-8 Plain Text
Duration : 1 h 47 min
Bit rate : 28 b/s
Count of elements : 837
Stream size : 22.5 KiB (0%)
Language : Italian
Default : No
Forced : No

Text #24
ID : 27
Format : UTF-8
Codec ID : S_TEXT/UTF8
Codec ID/Info : UTF-8 Plain Text
Duration : 1 h 39 min
Bit rate : 27 b/s
Count of elements : 806
Stream size : 19.7 KiB (0%)
Language : Japanese
Default : No
Forced : No

Text #25
ID : 28
Format : UTF-8
Codec ID : S_TEXT/UTF8
Codec ID/Info : UTF-8 Plain Text
Duration : 1 h 47 min
Bit rate : 28 b/s
Count of elements : 833
Stream size : 22.8 KiB (0%)
Language : Korean
Default : No
Forced : No

Text #26
ID : 29
Format : UTF-8
Codec ID : S_TEXT/UTF8
Codec ID/Info : UTF-8 Plain Text
Duration : 1 h 47 min
Bit rate : 27 b/s
Count of elements : 823
Stream size : 21.4 KiB (0%)
Language : Lithuanian
Default : No
Forced : No

Text #27
ID : 30
Format : UTF-8
Codec ID : S_TEXT/UTF8
Codec ID/Info : UTF-8 Plain Text
Duration : 1 h 47 min
Bit rate : 30 b/s
Count of elements : 835
Stream size : 23.8 KiB (0%)
Language : Latvian
Default : No
Forced : No

Text #28
ID : 31
Format : UTF-8
Codec ID : S_TEXT/UTF8
Codec ID/Info : UTF-8 Plain Text
Duration : 1 h 47 min
Bit rate : 31 b/s
Count of elements : 822
Stream size : 24.4 KiB (0%)
Language : Malay
Default : No
Forced : No

Text #29
ID : 32
Format : UTF-8
Codec ID : S_TEXT/UTF8
Codec ID/Info : UTF-8 Plain Text
Duration : 1 h 47 min
Bit rate : 25 b/s
Count of elements : 707
Stream size : 20.1 KiB (0%)
Language : Dutch
Default : No
Forced : No

Text #30
ID : 33
Format : UTF-8
Codec ID : S_TEXT/UTF8
Codec ID/Info : UTF-8 Plain Text
Duration : 1 h 47 min
Bit rate : 27 b/s
Count of elements : 797
Stream size : 21.3 KiB (0%)
Title : Flemish
Language : Dutch
Default : No
Forced : No

Text #31
ID : 34
Format : UTF-8
Codec ID : S_TEXT/UTF8
Codec ID/Info : UTF-8 Plain Text
Duration : 1 h 47 min
Bit rate : 27 b/s
Count of elements : 822
Stream size : 21.8 KiB (0%)
Language : Norwegian
Default : No
Forced : No

Text #32
ID : 35
Format : UTF-8
Codec ID : S_TEXT/UTF8
Codec ID/Info : UTF-8 Plain Text
Duration : 1 h 47 min
Bit rate : 23 b/s
Count of elements : 777
Stream size : 18.2 KiB (0%)
Language : Polish
Default : No
Forced : No

Text #33
ID : 36
Format : UTF-8
Codec ID : S_TEXT/UTF8
Codec ID/Info : UTF-8 Plain Text
Duration : 1 h 47 min
Bit rate : 29 b/s
Count of elements : 834
Stream size : 22.8 KiB (0%)
Title : Brazilian
Language : Portuguese
Default : No
Forced : No

Text #34
ID : 37
Format : UTF-8
Codec ID : S_TEXT/UTF8
Codec ID/Info : UTF-8 Plain Text
Duration : 1 h 47 min
Bit rate : 30 b/s
Count of elements : 837
Stream size : 23.6 KiB (0%)
Title : European
Language : Portuguese
Default : No
Forced : No

Text #35
ID : 38
Format : UTF-8
Codec ID : S_TEXT/UTF8
Codec ID/Info : UTF-8 Plain Text
Duration : 1 h 47 min
Bit rate : 29 b/s
Count of elements : 832
Stream size : 23.0 KiB (0%)
Language : Romanian
Default : No
Forced : No

Text #36
ID : 39
Format : UTF-8
Codec ID : S_TEXT/UTF8
Codec ID/Info : UTF-8 Plain Text
Duration : 1 h 47 min
Bit rate : 44 b/s
Count of elements : 837
Stream size : 35.0 KiB (0%)
Language : Russian
Default : No
Forced : No

Text #37
ID : 40
Format : UTF-8
Codec ID : S_TEXT/UTF8
Codec ID/Info : UTF-8 Plain Text
Duration : 1 h 47 min
Bit rate : 24 b/s
Count of elements : 824
Stream size : 19.1 KiB (0%)
Language : Slovak
Default : No
Forced : No

Text #38
ID : 41
Format : UTF-8
Codec ID : S_TEXT/UTF8
Codec ID/Info : UTF-8 Plain Text
Duration : 1 h 47 min
Bit rate : 25 b/s
Count of elements : 678
Stream size : 20.1 KiB (0%)
Language : Slovenian
Default : No
Forced : No

Text #39
ID : 42
Format : UTF-8
Codec ID : S_TEXT/UTF8
Codec ID/Info : UTF-8 Plain Text
Duration : 1 h 47 min
Bit rate : 26 b/s
Count of elements : 825
Stream size : 20.7 KiB (0%)
Language : Serbian
Default : No
Forced : No

Text #40
ID : 43
Format : UTF-8
Codec ID : S_TEXT/UTF8
Codec ID/Info : UTF-8 Plain Text
Duration : 1 h 47 min
Bit rate : 29 b/s
Count of elements : 824
Stream size : 23.2 KiB (0%)
Language : Swedish
Default : No
Forced : No

Text #41
ID : 44
Format : UTF-8
Codec ID : S_TEXT/UTF8
Codec ID/Info : UTF-8 Plain Text
Duration : 1 h 47 min
Bit rate : 71 b/s
Count of elements : 833
Stream size : 56.0 KiB (0%)
Language : Thai
Default : No
Forced : No

Text #42
ID : 45
Format : UTF-8
Codec ID : S_TEXT/UTF8
Codec ID/Info : UTF-8 Plain Text
Duration : 1 h 47 min
Bit rate : 29 b/s
Count of elements : 831
Stream size : 23.3 KiB (0%)
Language : Turkish
Default : No
Forced : No

Text #43
ID : 46
Format : UTF-8
Codec ID : S_TEXT/UTF8
Codec ID/Info : UTF-8 Plain Text
Duration : 1 h 47 min
Bit rate : 47 b/s
Count of elements : 835
Stream size : 37.1 KiB (0%)
Language : Ukrainian
Default : No
Forced : No

Text #44
ID : 47
Format : UTF-8
Codec ID : S_TEXT/UTF8
Codec ID/Info : UTF-8 Plain Text
Duration : 1 h 47 min
Bit rate : 38 b/s
Count of elements : 832
Stream size : 30.1 KiB (0%)
Language : Vietnamese
Default : No
Forced : No

Text #45
ID : 48
Format : UTF-8
Codec ID : S_TEXT/UTF8
Codec ID/Info : UTF-8 Plain Text
Duration : 1 h 47 min
Bit rate : 22 b/s
Count of elements : 834
Stream size : 18.0 KiB (0%)
Title : Cantonese
Language : Chinese
Default : No
Forced : No

Text #46
ID : 49
Format : UTF-8
Codec ID : S_TEXT/UTF8
Codec ID/Info : UTF-8 Plain Text
Duration : 1 h 47 min
Bit rate : 26 b/s
Count of elements : 835
Stream size : 20.6 KiB (0%)
Title : Mandarin Simplified
Language : Chinese
Default : No
Forced : No

Text #47
ID : 50
Format : UTF-8
Codec ID : S_TEXT/UTF8
Codec ID/Info : UTF-8 Plain Text
Duration : 1 h 47 min
Bit rate : 24 b/s
Count of elements : 831
Stream size : 19.6 KiB (0%)
Title : Mandarin Traditional
Language : Chinese
Default : No
Forced : No

Text #48
ID : 51
Format : PGS
Codec ID : S_HDMV/PGS
Codec ID/Info : Picture based subtitle format used on BDs/HD-DVDs
Duration : 1 h 48 min
Bit rate : 45.4 kb/s
Count of elements : 3132
Stream size : 35.2 MiB (0%)
Title : Commentary
Language : English
Default : No
Forced : No

Text #49
ID : 52
Format : PGS
Codec ID : S_HDMV/PGS
Codec ID/Info : Picture based subtitle format used on BDs/HD-DVDs
Duration : 1 h 48 min
Bit rate : 39.5 kb/s
Count of elements : 2942
Stream size : 30.5 MiB (0%)
Title : Commentary
Language : Danish
Default : No
Forced : No

Text #50
ID : 53
Format : PGS
Codec ID : S_HDMV/PGS
Codec ID/Info : Picture based subtitle format used on BDs/HD-DVDs
Duration : 1 h 48 min
Bit rate : 41.6 kb/s
Count of elements : 2946
Stream size : 32.2 MiB (0%)
Title : Commentary | Latin American
Language : Spanish
Default : No
Forced : No

Text #51
ID : 54
Format : PGS
Codec ID : S_HDMV/PGS
Codec ID/Info : Picture based subtitle format used on BDs/HD-DVDs
Duration : 1 h 48 min
Bit rate : 38.2 kb/s
Count of elements : 2940
Stream size : 29.5 MiB (0%)
Title : Commentary | European
Language : Spanish
Default : No
Forced : No

Text #52
ID : 55
Format : PGS
Codec ID : S_HDMV/PGS
Codec ID/Info : Picture based subtitle format used on BDs/HD-DVDs
Duration : 1 h 48 min
Bit rate : 39.9 kb/s
Count of elements : 2932
Stream size : 30.8 MiB (0%)
Title : Commentary
Language : Finnish
Default : No
Forced : No

Text #53
ID : 56
Format : PGS
Codec ID : S_HDMV/PGS
Codec ID/Info : Picture based subtitle format used on BDs/HD-DVDs
Duration : 1 h 48 min
Bit rate : 42.3 kb/s
Count of elements : 2946
Stream size : 32.7 MiB (0%)
Title : Commentary
Language : French
Default : No
Forced : No

Text #54
ID : 57
Format : PGS
Codec ID : S_HDMV/PGS
Codec ID/Info : Picture based subtitle format used on BDs/HD-DVDs
Duration : 1 h 48 min
Bit rate : 40.5 kb/s
Count of elements : 2946
Stream size : 31.3 MiB (0%)
Title : Commentary
Language : Italian
Default : No
Forced : No

Text #55
ID : 58
Format : PGS
Codec ID : S_HDMV/PGS
Codec ID/Info : Picture based subtitle format used on BDs/HD-DVDs
Duration : 1 h 48 min
Bit rate : 29.8 kb/s
Count of elements : 2946
Stream size : 23.0 MiB (0%)
Title : Commentary
Language : Korean
Default : No
Forced : No

Text #56
ID : 59
Format : PGS
Codec ID : S_HDMV/PGS
Codec ID/Info : Picture based subtitle format used on BDs/HD-DVDs
Duration : 1 h 48 min
Bit rate : 40.4 kb/s
Count of elements : 2868
Stream size : 31.2 MiB (0%)
Title : Commentary
Language : Dutch
Default : No
Forced : No

Text #57
ID : 60
Format : PGS
Codec ID : S_HDMV/PGS
Codec ID/Info : Picture based subtitle format used on BDs/HD-DVDs
Duration : 1 h 48 min
Bit rate : 39.0 kb/s
Count of elements : 2942
Stream size : 30.2 MiB (0%)
Title : Commentary
Language : Norwegian
Default : No
Forced : No

Text #58
ID : 61
Format : PGS
Codec ID : S_HDMV/PGS
Codec ID/Info : Picture based subtitle format used on BDs/HD-DVDs
Duration : 1 h 48 min
Bit rate : 40.9 kb/s
Count of elements : 2942
Stream size : 31.6 MiB (0%)
Title : Commentary
Language : Russian
Default : No
Forced : No

Text #59
ID : 62
Format : PGS
Codec ID : S_HDMV/PGS
Codec ID/Info : Picture based subtitle format used on BDs/HD-DVDs
Duration : 1 h 48 min
Bit rate : 40.1 kb/s
Count of elements : 2762
Stream size : 31.0 MiB (0%)
Title : Commentary
Language : Swedish
Default : No
Forced : No

Menu
00:00:00.000 : en:Chapter 1
00:03:59.364 : en:Chapter 2
00:10:36.552 : en:Chapter 3
00:14:20.317 : en:Chapter 4
00:17:50.944 : en:Chapter 5
00:22:39.691 : en:Chapter 6
00:27:50.043 : en:Chapter 7
00:35:08.689 : en:Chapter 8
00:37:10.186 : en:Chapter 9
00:41:32.239 : en:Chapter 10
00:46:28.243 : en:Chapter 11
00:49:59.037 : en:Chapter 12
00:56:02.859 : en:Chapter 13
01:02:04.846 : en:Chapter 14
01:04:48.801 : en:Chapter 15
01:09:00.428 : en:Chapter 16
01:15:58.470 : en:Chapter 17
01:19:47.199 : en:Chapter 18
01:22:08.215 : en:Chapter 19
01:27:00.673 : en:Chapter 20
01:29:35.953 : en:Chapter 21
01:33:38.779 : en:Chapter 22
01:39:15.199 : en:Chapter 23
01:42:47.035 : en:Chapter 24

Files