Team America World Police 2004 BluRay 2160p UHD REMUX HEVC DV P7 DT-DL DTS-HD MA 5 1-MP4

Popular Broadway actor Gary Johnston is recruited by the elite counter-terrorism organization Team America: World Police. As the world begins to crumble around him, he must battle with terrorists, celebrities and falling in love.

Year: 2004
Duration: 98 min
Release date: Friday 15th October 2004
Genre: Action, Adventure, Comedy

Rating

7.3/10
(59472 Votes)

0

Your Rating

Stars:
Trey Parker, Matt Stone, Kristen Miller, Masasa Moyo

General
Complete name : Team.America.World.Police.2004.BluRay.2160p.UHD.REMUX.HEVC.DV.P7.DT-DL.DTS-HD.MA.5.1-MP4.mp4
Format : mp43
Codec ID : mp43 (isom/mp43/dby1)
File size : 56.8 GiB
Duration : 1 h 37 min
Overall bit rate mode : Variable
Overall bit rate : 83.2 Mb/s
Frame rate : 23.976 FPS
Encoded date : 2024-06-29 01:02:32 UTC
Tagged date : 2024-06-29 01:02:32 UTC
Writing application : GPAC-1.1.0-DEV-rev1027-g1daa0b5f-master

Video #1
ID : 1
Format : HEVC
Format/Info : High Efficiency Video Coding
Format profile : Main 10@L5.1@High
HDR format : SMPTE ST 2086, HDR10 compatible
Codec ID : hev1
Codec ID/Info : High Efficiency Video Coding
Duration : 1 h 37 min
Bit rate : 62.4 Mb/s
Maximum bit rate : 105 Mb/s
Width : 3 840 pixels
Height : 2 160 pixels
Display aspect ratio : 16:9
Frame rate mode : Constant
Frame rate : 23.976 (24000/1001) FPS
Color space : YUV
Chroma subsampling : 4:2:0 (Type 2)
Bit depth : 10 bits
Bits/(Pixel*Frame) : 0.314
Stream size : 42.6 GiB (75%)
Default : Yes
Alternate group : 1
Encoded date : 2024-06-29 00:58:50 UTC
Tagged date : 2024-06-29 01:05:11 UTC
Color range : Limited
Color primaries : BT.2020
Transfer characteristics : PQ
Matrix coefficients : BT.2020 non-constant
Mastering display color primaries : Display P3
Mastering display luminance : min: 0.0001 cd/m2, max: 1000 cd/m2
Maximum Content Light Level : 999 cd/m2
Maximum Frame-Average Light Level : 415 cd/m2
Codec configuration box : hvcC

Video #2
ID : 2
Format : HEVC
Format/Info : High Efficiency Video Coding
Format profile : Main 10@L5.1@High
HDR format : Dolby Vision, Version 1.0, Profile 7.0, dvhe.07.06, EL+RPU, no metadata compression / SMPTE ST 2086, Version HDR10, HDR10 compatible
Codec ID : dvhe
Codec ID/Info : High Efficiency Video Coding with Dolby Vision
Duration : 1 h 37 min
Bit rate : 15.7 Mb/s
Width : 1 920 pixels
Height : 1 080 pixels
Display aspect ratio : 16:9
Frame rate mode : Constant
Frame rate : 23.976 (24000/1001) FPS
Color space : YUV
Chroma subsampling : 4:2:0 (Type 2)
Bit depth : 10 bits
Bits/(Pixel*Frame) : 0.315
Stream size : 10.7 GiB (19%)
Default : No
Alternate group : 1
Encoded date : 2024-06-29 00:58:50 UTC
Tagged date : 2024-06-29 01:05:11 UTC
Color range : Limited
Color primaries : BT.2020
Transfer characteristics : PQ
Matrix coefficients : BT.2020 non-constant
Mastering display color primaries : Display P3
Mastering display luminance : min: 0.0001 cd/m2, max: 1000 cd/m2
Codec configuration box : hvcC+dvcC

Audio #1
ID : 3
Format : E-AC-3
Format/Info : Enhanced AC-3
Commercial name : Dolby Digital Plus
Codec ID : ac-3
Duration : 1 h 37 min
Bit rate mode : Constant
Bit rate : 1 024 kb/s
Maximum bit rate : 1 081 kb/s
Channel(s) : 6 channels
Channel layout : L R C LFE Ls Rs
Sampling rate : 48.0 kHz
Frame rate : 31.250 FPS (1536 SPF)
Compression mode : Lossy
Stream size : 715 MiB (1%)
Title : DDP
Language : English
Service kind : Complete Main
Encoded date : 2024-06-29 01:04:58 UTC
Tagged date : 2024-06-29 01:05:11 UTC
Dialog Normalization : -31 dB
dialnorm_Average : -31 dB
dialnorm_Minimum : -31 dB
dialnorm_Maximum : -31 dB

Audio #2
ID : 4
Format : DTS XLL
Format/Info : Digital Theater Systems
Commercial name : DTS-HD Master Audio
Codec ID : mp4a-A9
Duration : 1 h 37 min
Bit rate mode : Variable
Bit rate : 4 071 kb/s
Maximum bit rate : 5 487 kb/s / 4 071 kb/s
Channel(s) : 6 channels
Channel layout : C L R Ls Rs LFE
Sampling rate : 48.0 kHz
Frame rate : 93.750 FPS (512 SPF)
Bit depth : 24 bits
Compression mode : Lossless
Stream size : 2.78 GiB (5%)
Title : English
Language : English
Default : Yes
Alternate group : 1
Tagged date : 2024-06-29 01:05:11 UTC

Text
ID : 5
Format : Timed Text
Codec ID : tx3g
Duration : 1 h 37 min
Bit rate mode : Variable
Bit rate : 82 b/s
Frame rate : 0.559 FPS
Stream size : 58.5 KiB (0%)
Title : SRT
Language : English
Forced : No
Encoded date : 2024-06-29 01:05:11 UTC
Tagged date : 2024-06-29 01:05:11 UTC
Count of events : 1635

Files