Boneyard 2024 2160p AMZN WEB-DL DDP5 1 H 265-BYNDR

Inspired by the true events of a serial killer that may still be out there today.

Year: 2024
Duration: 96 min
Release date: Tuesday 2nd July 2024
Genre: Action, Crime, Drama, Mystery, Thriller

0

Your Rating

Stars:
Mel Gibson, Nora Zehetner, Gabrielle Haugh, 50 Cent, Brian Van Holt, Spice Williams-Crosby, Weston Cage, Michael Sirow

General
Unique ID : 32296526483402907940389234577137766075 (0x184C15B1E0044C558A761B6F8EA88EBB)
Complete name : Boneyard.2024.2160p.AMZN.WEB-DL.DDP5.1.H.265-BYNDR.mkv
Format : Matroska
Format version : Version 4
File size : 10.5 GiB
Duration : 1 h 36 min
Overall bit rate : 15.5 Mb/s
Writing application : mkvmerge v83.0 ('Circle Of Friends') 64-bit
Writing library : libebml v1.4.5 + libmatroska v1.7.1

Video
ID : 1
Format : HEVC
Format/Info : High Efficiency Video Coding
Format profile : Main@L5@Main
Codec ID : V_MPEGH/ISO/HEVC
Duration : 1 h 36 min
Bit rate : 14.9 Mb/s
Width : 3 840 pixels
Height : 1 600 pixels
Display aspect ratio : 2.40:1
Frame rate mode : Constant
Frame rate : 23.976 (24000/1001) FPS
Color space : YUV
Chroma subsampling : 4:2:0
Bit depth : 8 bits
Bits/(Pixel*Frame) : 0.101
Stream size : 10.0 GiB (96%)
Default : Yes
Forced : No
Color range : Limited
Color primaries : BT.709
Transfer characteristics : BT.709
Matrix coefficients : BT.709

Audio
ID : 2
Format : E-AC-3
Format/Info : Enhanced AC-3
Commercial name : Dolby Digital Plus
Codec ID : A_EAC3
Duration : 1 h 36 min
Bit rate mode : Constant
Bit rate : 640 kb/s
Channel(s) : 6 channels
Channel layout : L R C LFE Ls Rs
Sampling rate : 48.0 kHz
Frame rate : 31.250 FPS (1536 SPF)
Compression mode : Lossy
Stream size : 443 MiB (4%)
Language : English
Service kind : Complete Main
Default : Yes
Forced : No

Text #1
ID : 3
Format : UTF-8
Codec ID : S_TEXT/UTF8
Codec ID/Info : UTF-8 Plain Text
Duration : 1 h 29 min
Bit rate : 66 b/s
Count of elements : 1306
Stream size : 43.9 KiB (0%)
Language : English
Default : No
Forced : No

Text #2
ID : 4
Format : UTF-8
Codec ID : S_TEXT/UTF8
Codec ID/Info : UTF-8 Plain Text
Duration : 1 h 36 min
Bit rate : 70 b/s
Count of elements : 1539
Stream size : 50.0 KiB (0%)
Title : SDH
Language : English
Default : No
Forced : No

Text #3
ID : 5
Format : UTF-8
Codec ID : S_TEXT/UTF8
Codec ID/Info : UTF-8 Plain Text
Duration : 1 h 35 min
Bit rate : 59 b/s
Count of elements : 1150
Stream size : 41.5 KiB (0%)
Title : European
Language : French
Default : No
Forced : No

Menu
00:00:00.000 : en:Scene 01
01:30:45.458 : en:End Credits

Files