Barbie Star Light Adventure 2016 1080p BluRay x264-GUACAMOLE

Barbie(TM) is a cosmic princess who flies high on her hoverboard through a far-off universe with her adorable and devoted pet sidekick...

Year: 2016
Duration: 79 min
Release date: Tuesday 13th September 2016
Genre: Animation, Family

Rating

5.8/10
(324 Votes)

0

Your Rating

Stars:
Erica Lindbeck, Robbie Daymond, Kimberly Woods, Sarah Anne Williams

General
Unique ID : 177674110746594225505334547607971324600 (0x85AAC9FD680649E99134C67BE67A62B8)
Complete name : Barbie.Star.Light.Adventure.2016.1080p.BluRay.x264-GUACAMOLE.mkv
Format : Matroska
Format version : Version 4
File size : 5.45 GiB
Duration : 1 h 19 min
Overall bit rate : 9 824 kb/s
Frame rate : 23.976 FPS
Encoded date : 2016-09-05 15:10:01 UTC
Writing application : mkvmerge v9.4.0 ('Knurl') 64bit
Writing library : libebml v1.3.4 + libmatroska v1.4.5

Video
ID : 1
Format : AVC
Format/Info : Advanced Video Codec: Format profile : High@L4.1
Format settings : CABAC / 4 Ref Frames
Format settings, CABAC : Yes
Format settings, Reference frames : 4 frames
Codec ID : V_MPEG4/ISO/AVC
Duration : 1 h 19 min
Bit rate : 8 313 kb/s
Width : 1 920 pixels
Height : 1 080 pixels
Display aspect ratio : 16:9
Frame rate mode : Constant
Frame rate : 23.976 (24000/1001) FPS
Color space : YUV
Chroma subsampling : 4:2:0
Bit depth : 8 bits
Scan type : Progressive
Bits/(Pixel*Frame) : 0.167
Stream size : 4.61 GiB (85%)
Writing library : x264 core 148 r2705 3f5ed56
Encoding settings : cabac=1 / ref=4 / deblock=1:0:0 / analyse=0x3:0x113 / me=umh / subme=7 / psy=1 / psy_rd=1.00:0.00 / mixed_ref=1 / me_range=16 / chroma_me=1 / trellis=1 / 8x8dct=1 / cqm=0 / deadzone=21,11 / fast_pskip=0 / chroma_qp_offset=-2 / threads=12 / lookahead_threads=2 / sliced_threads=0 / nr=0 / decimate=1 / interlaced=0 / bluray_compat=0 / constrained_intra=0 / bframes=3 / b_pyramid=2 / b_adapt=2 / b_bias=0 / direct=3 / weightb=1 / open_gop=0 / weightp=2 / keyint=250 / keyint_min=23 / scenecut=40 / intra_refresh=0 / rc_lookahead=50 / rc=2pass / mbtree=1 / bitrate=8313 / ratetol=1.0 / qcomp=0.60 / qpmin=0 / qpmax=69 / qpstep=4 / cplxblur=20.0 / qblur=0.5 / ip_ratio=1.40 / aq=1:1.00
Default : Yes
Forced : No

Audio
ID : 2
Format : DTS
Format/Info : Digital Theater Systems
Codec ID : A_DTS
Duration : 1 h 19 min
Bit rate mode : Constant
Bit rate : 1 509 kb/s
Channel(s) : 6 channels
Channel layout : C L R Ls Rs LFE
Sampling rate : 48.0 kHz
Frame rate : 93.750 FPS (512 SPF)
Bit depth : 24 bits
Compression mode : Lossy
Stream size : 858 MiB (15%)
Language : English
Default : Yes
Forced : No

ReportBy : MediaInfoLib - v23.10

Files