Abigail 2024 NORDiC2160p SDR WEB-DL DDP5 1 Atmos H 265-NorTekst

After a group of criminals kidnap the ballerina daughter of a powerful underworld figure, they retreat to an isolated mansion, unaware that they're locked inside with no normal little girl.

Year: 2024
Duration: 109 min
Release date: Wednesday 29th May 2024
Genre: Horror, Thriller

Rating

7/10
(12599 Votes)

0

Your Rating

Stars:
Melissa Barrera, Dan Stevens, Alisha Weir, William Catlett, Kathryn Newton, Kevin Durand, Angus Cloud, Giancarlo Esposito

Abigail.2024.NORDiC2160p.SDR.WEB-DL.DDP5.1.Atmos.H.265-NorTekst
IMDB: https://www.imdb.com/title/tt27489557

After a group of criminals kidnap the ballerina daughter of a powerful underworld figure, they retreat to an isolated mansion, unaware that they're locked inside with no normal little girl.
-----------------------
General
Unique ID : 333747054344780356216229578535708953678 (0xFB1558367BFC0811B1C0E27ADBDC8C4E)
Complete name : Abigail.2024.NORDiC2160p.SDR.WEB-DL.DDP5.1.Atmos.H.265-NorTekst.mkv
Format : Matroska
Format version : Version 4
File size : 12.0 GiB
Duration : 1 h 49 min
Overall bit rate : 15.7 Mb/s
Frame rate : 23.976 FPS
Movie name : Abigail.2024.NORDiC2160p.SDR.WEB-DL.DDP5.1.Atmos.H.265-NorTekst
Encoded date : 2024-07-01 16:13:05 UTC
Writing application : mkvmerge v78.0 ('Running') 64-bit
Writing library : libebml v1.4.4 + libmatroska v1.7.1

Video
ID : 1
Format : HEVC
Format/Info : High Efficiency Video Coding
Format profile : Main@L5@Main
Codec ID : V_MPEGH/ISO/HEVC
Duration : 1 h 49 min
Bit rate : 14.9 Mb/s
Width : 3 840 pixels
Height : 1 600 pixels
Display aspect ratio : 2.40:1
Frame rate mode : Constant
Frame rate : 23.976 (24000/1001) FPS
Color space : YUV
Chroma subsampling : 4:2:0
Bit depth : 8 bits
Bits/(Pixel*Frame) : 0.101
Stream size : 11.4 GiB (95%)
Default : Yes
Forced : No
Color range : Limited
Color primaries : BT.709
Transfer characteristics : BT.709
Matrix coefficients : BT.709

Audio
ID : 2
Format : E-AC-3 JOC
Format/Info : Enhanced AC-3 with Joint Object Coding
Commercial name : Dolby Digital Plus with Dolby Atmos
Codec ID : A_EAC3
Duration : 1 h 49 min
Bit rate mode : Constant
Bit rate : 768 kb/s
Channel(s) : 6 channels
Channel layout : L R C LFE Ls Rs
Sampling rate : 48.0 kHz
Frame rate : 31.250 FPS (1536 SPF)
Compression mode : Lossy
Delay relative to video : 20 ms
Stream size : 602 MiB (5%)
Title : Engelsk DDP 5.1 Atmos
Language : English
Service kind : Complete Main
Default : Yes
Forced : No
Complexity index : 16
Number of dynamic objects : 15
Bed channel count : 1 channel
Bed channel configuration : LFE
Dialog Normalization : -25 dB
compr : -0.28 dB
dialnorm_Average : -25 dB
dialnorm_Minimum : -25 dB
dialnorm_Maximum : -25 dB

Text #1
ID : 3
Format : UTF-8
Codec ID : S_TEXT/UTF8
Codec ID/Info : UTF-8 Plain Text
Duration : 1 h 46 min
Bit rate : 37 b/s
Frame rate : 0.128 FPS
Count of elements : 820
Stream size : 29.6 KiB (0%)
Title : Dansk
Language : Danish
Default : No
Forced : No

Text #2
ID : 4
Format : UTF-8
Codec ID : S_TEXT/UTF8
Codec ID/Info : UTF-8 Plain Text
Duration : 1 h 46 min
Bit rate : 38 b/s
Frame rate : 0.180 FPS
Count of elements : 1152
Stream size : 30.3 KiB (0%)
Title : Finsk
Language : Finnish
Default : No
Forced : No

Text #3
ID : 5
Format : UTF-8
Codec ID : S_TEXT/UTF8
Codec ID/Info : UTF-8 Plain Text
Duration : 1 h 44 min
Bit rate : 50 b/s
Frame rate : 0.235 FPS
Count of elements : 1478
Stream size : 38.8 KiB (0%)
Title : Engelsk
Language : English
Default : No
Forced : No

Text #4
ID : 6
Format : UTF-8
Codec ID : S_TEXT/UTF8
Codec ID/Info : UTF-8 Plain Text
Duration : 1 h 46 min
Bit rate : 40 b/s
Frame rate : 0.185 FPS
Count of elements : 1183
Stream size : 31.7 KiB (0%)
Title : Norsk
Language : Norwegian
Default : No
Forced : No

Text #5
ID : 7
Format : UTF-8
Codec ID : S_TEXT/UTF8
Codec ID/Info : UTF-8 Plain Text
Duration : 1 h 46 min
Bit rate : 41 b/s
Frame rate : 0.145 FPS
Count of elements : 933
Stream size : 32.3 KiB (0%)
Title : Svensk
Language : Swedish
Default : No
Forced : No

Menu
00:00:00.000 : en:Chapter 01
00:09:30.779 : en:Chapter 02
00:15:10.285 : en:Chapter 03
00:19:58.156 : en:Chapter 04
00:25:56.514 : en:Chapter 05
00:32:13.892 : en:Chapter 06
00:38:36.983 : en:Chapter 07
00:46:24.951 : en:Chapter 08
00:53:19.574 : en:Chapter 09
00:59:57.430 : en:Chapter 10
01:04:18.900 : en:Chapter 11
01:14:32.597 : en:Chapter 12
01:23:23.211 : en:Chapter 13
01:31:34.494 : en:Chapter 14
01:37:43.405 : en:Chapter 15
01:44:59.132 : en:Chapter 16
-----------------------
Source: FLUX
Nordic subs: Retail SRT

Enjoy :P

Files