Thor Ragnarok 2017 NORDiC 1080p REMUX BluRay AVC DTS-HD MA 7 1-NorTekst

Imprisoned, the almighty Thor finds himself in a lethal gladiatorial contest against the Hulk, his former ally. Thor must fight for survival and race against time to prevent the all-powerful Hela from destroying his home and the Asgardian civilization.

Year: 2017
Duration: 130 min
Release date: Friday 3rd November 2017
Genre: Action, Adventure, Comedy, Sci-Fi

Rating

7.9/10
(407750 Votes)

0

Your Rating

Stars:
Chris Hemsworth, Tom Hiddleston, Cate Blanchett, Mark Ruffalo

Thor.Ragnarok.2017.NORDiC.1080p.REMUX.BluRay.AVC.DTS-HD.MA.7.1-NorTekst
IMDB: https://www.imdb.com/title/tt3501632

Imprisoned on the planet Sakaar, Thor must race against time to return to Asgard and stop Ragnarök, the destruction of his world, at the hands of the powerful and ruthless villain Hela.
-------------------
General
Unique ID : 293173782683389825256481214968570763551 (0xDC8F377983D69CFEAA3F30FED0E2D91F)
Complete name : Thor.Ragnarok.2017.NORDiC.1080p.REMUX.BluRay.AVC.DTS-HD.MA.7.1-NorTekst.mkv
Format : Matroska
Format version : Version 4
File size : 26.4 GiB
Duration : 2 h 10 min
Overall bit rate mode : Variable
Overall bit rate : 28.9 Mb/s
Frame rate : 23.976 FPS
Movie name : Thor.Ragnarok.2017.NORDiC.1080p.REMUX.BluRay.AVC.DTS-HD.MA.7.1-NorTekst
Encoded date : 2024-06-29 19:10:07 UTC
Writing application : mkvmerge v78.0 ('Running') 64-bit
Writing library : libebml v1.4.4 + libmatroska v1.7.1

Video
ID : 1
Format : AVC
Format/Info : Advanced Video Codec: Format profile : High@L4.1
Format settings : CABAC / 4 Ref Frames
Format settings, CABAC : Yes
Format settings, Reference frames : 4 frames
Format settings, Slice count : 4 slices per frame
Codec ID : V_MPEG4/ISO/AVC
Duration : 2 h 10 min
Bit rate mode : Variable
Bit rate : 23.8 Mb/s
Maximum bit rate : 34.0 Mb/s
Width : 1 920 pixels
Height : 1 080 pixels
Display aspect ratio : 16:9
Frame rate mode : Constant
Frame rate : 23.976 (24000/1001) FPS
Color space : YUV
Chroma subsampling : 4:2:0
Bit depth : 8 bits
Scan type : Progressive
Bits/(Pixel*Frame) : 0.479
Time code of first frame : 00:59:58:04
Stream size : 21.7 GiB (82%)
Default : Yes
Forced : No

Audio #1
ID : 2
Format : DTS XLL
Format/Info : Digital Theater Systems
Commercial name : DTS-HD Master Audio
Codec ID : A_DTS
Duration : 2 h 10 min
Bit rate mode : Variable
Bit rate : 4 891 kb/s
Channel(s) : 8 channels
Channel layout : C L R LFE Lb Rb Lss Rss
Sampling rate : 48.0 kHz
Frame rate : 93.750 FPS (512 SPF)
Bit depth : 24 bits
Compression mode : Lossless
Stream size : 4.46 GiB (17%)
Title : Engelsk DTS-HD MA 7.1
Language : English
Default : Yes
Forced : No

Audio #2
ID : 3
Format : AC-3
Format/Info : Audio Coding 3
Commercial name : Dolby Digital
Codec ID : A_AC3
Duration : 2 h 10 min
Bit rate mode : Constant
Bit rate : 192 kb/s
Channel(s) : 2 channels
Channel layout : L R
Sampling rate : 48.0 kHz
Frame rate : 31.250 FPS (1536 SPF)
Compression mode : Lossy
Stream size : 179 MiB (1%)
Title : Engelsk Kommentarspor med Regissør Taika Waititi
Language : English
Service kind : Complete Main
Default : No
Forced : No
Dialog Normalization : -31 dB
compr : 5.74 dB
dynrng : 5.46 dB
dsurmod : Not Dolby Surround encoded
ltrtcmixlev : -3.0 dB
ltrtsurmixlev : -3.0 dB
lorocmixlev : -3.0 dB
lorosurmixlev : -3.0 dB
dialnorm_Average : -31 dB
dialnorm_Minimum : -31 dB
dialnorm_Maximum : -31 dB

Text #1
ID : 4
Format : PGS
Muxing mode : zlib
Codec ID : S_HDMV/PGS
Codec ID/Info : Picture based subtitle format used on BDs/HD-DVDs
Duration : 2 h 10 min
Bit rate : 58.7 kb/s
Frame rate : 0.571 FPS
Count of elements : 4458
Stream size : 54.7 MiB (0%)
Title : Engesk (Kommentarspor)
Language : English
Default : No
Forced : No

Text #2
ID : 5
Format : UTF-8
Codec ID : S_TEXT/UTF8
Codec ID/Info : UTF-8 Plain Text
Duration : 2 h 9 min
Bit rate : 51 b/s
Frame rate : 0.231 FPS
Count of elements : 1797
Stream size : 48.8 KiB (0%)
Title : Engelsk
Language : English
Default : No
Forced : No

Text #3
ID : 6
Format : UTF-8
Codec ID : S_TEXT/UTF8
Codec ID/Info : UTF-8 Plain Text
Duration : 2 h 9 min
Bit rate : 43 b/s
Frame rate : 0.144 FPS
Count of elements : 1121
Stream size : 41.0 KiB (0%)
Title : Dansk
Language : Danish
Default : No
Forced : No

Text #4
ID : 7
Format : UTF-8
Codec ID : S_TEXT/UTF8
Codec ID/Info : UTF-8 Plain Text
Duration : 2 h 9 min
Bit rate : 46 b/s
Frame rate : 0.202 FPS
Count of elements : 1567
Stream size : 44.5 KiB (0%)
Title : Finsk
Language : Finnish
Default : No
Forced : No

Text #5
ID : 8
Format : UTF-8
Codec ID : S_TEXT/UTF8
Codec ID/Info : UTF-8 Plain Text
Duration : 2 h 9 min
Bit rate : 44 b/s
Frame rate : 0.202 FPS
Count of elements : 1566
Stream size : 41.8 KiB (0%)
Title : Norsk
Language : Norwegian
Default : No
Forced : No

Text #6
ID : 9
Format : UTF-8
Codec ID : S_TEXT/UTF8
Codec ID/Info : UTF-8 Plain Text
Duration : 2 h 9 min
Bit rate : 43 b/s
Frame rate : 0.136 FPS
Count of elements : 1056
Stream size : 41.2 KiB (0%)
Title : Svensk
Language : Swedish
Default : No
Forced : No

Menu
00:00:00.000 : en:The Great Prophecy
00:06:20.672 : en:The Tragedy Of Loki Of Asgard
00:14:11.642 : en:A Worthy Inclusion
00:22:12.873 : en:The Goddess Of Death
00:26:43.060 : en:"e;Are You A Fighter, Or Are You Food?"e;
00:31:29.721 : en:Heiress Apparent
00:35:03.935 : en:The Grandmaster
00:42:49.734 : en:The Eternal Flame
00:48:31.534 : en:The Contest Of Champions
00:59:38.784 : en:The Resistance
01:07:57.907 : en:Hotheaded Fools
01:17:30.604 : en:The Revengers
01:27:25.323 : en:"e;The Revolution Has Begun"e;
01:36:08.721 : en:Ready For War
01:42:35.733 : en:"e;Asgard Is Not A Place"e;
01:49:19.887 : en:"e;What Were You The God Of Again?"e;
01:54:57.599 : en:Ragnarok
02:00:37.522 : en:End Credits
-------------------
Source: FraMeSToR
English commentary track is subbed only in english
Nordic Subs: RAPiDCOWS - Retail SRT
English Subs: SPARKS - Retail SRT

Enjoy :P

Files