May December 2023 1080p BluRay REMUX AVC DTS-HD MA 5 1-TRiToN

Twenty years after their notorious tabloid romance gripped the nation, a married couple buckles under pressure when an actress arrives to do research for a film about their past.

Year: 2023
Duration: 117 min
Release date: Wednesday 24th January 2024
Genre: Comedy, Drama

Rating

7/10
(26430 Votes)

0

Your Rating

Stars:
Natalie Portman, Chris Tenzis, Charles Melton, Julianne Moore, Andrea Frankle, Gabriel Chung, Mikenzie Taylor, Jocelyn Shelfo

Release...: May December 2023 1080p BluRay REMUX AVC DTS-HD MA 5.1-TRiToN
Video.....: MPEG-4 AVC Video / 27997 kbps / 1080p / 23.976 fps / 16:9 / High Profile 4.1
Audio.....: English / DTS-HD Master Audio / 5.1 / 48 kHz / 3272 kbps / 24-bit
Source....: May.December.2023.1080p.AUS.Blu-ray.AVC.DTS-HD.MA.5.1 (Thanks!)
[ video, audio & subtitles ]
Source....: May.December.2023.COMPLETE.BLURAY-BDA (Thanks!)
[ comparison only ]
Source....: May.December.2023.1080p.AMZN.WEB-DL.DDP5.1.H.264-FLUX (Thanks!)
[ subtitles - delayed -19478ms ]
Notes.....: Video Comparison: https://slow.pics/c/Zh1E9JN6

eac3to log:
eac3to v3.34
command line: "e;eac3to.exe"e; BDMV 1) 1: chapters.txt 2: video.h264 3: english.dtsma 4: english.ac3 5: english.sup -log=log.txt -progressnumbers
------------------------------------------------------------------------------
M2TS, 1 video track, 2 audio tracks, 1 subtitle track, 1:57:25, 24p /1.001
1: Chapters, 10 chapters
2: h264/AVC, 1080p24 /1.001 (16:9)
3: DTS Master Audio, English, 5.1 channels, 24 bits, 48kHz
(core: DTS, 5.1 channels, 1509kbps, 48kHz)
4: AC3, English, 2.0 channels, 224kbps, 48kHz, dialnorm: -27dB
5: Subtitle (PGS), English
Creating file "e;chapters.txt"e;...
[v02] Extracting video track number 2...
[a03] Extracting audio track number 3...
[s05] Extracting subtitle track number 5...
[a04] Extracting audio track number 4...
[a04] Removing AC3 dialog normalization...
[v02] Creating file "e;video.h264"e;...
[a03] Creating file "e;english.dtsma"e;...
[a04] Creating file "e;english.ac3"e;...
[s05] Creating file "e;english.sup"e;...
Video track 2 contains 168904 frames.
Subtitle track 5 contains 1678 captions.
eac3to processing took 4 minutes, 24 seconds.
Done.

MediaInfo:
General
Unique ID : 1446038665139352988222012529949687788 (0x1167F35ED05551CCF0EBB22F4463FEC)
Complete name : May.December.2023.1080p.BluRay.REMUX.AVC.DTS-HD.MA.5.1-TRiToN.mkv
Format : Matroska
Format version : Version 4
File size : 25.3 GiB
Duration : 1 h 57 min
Overall bit rate mode : Variable
Overall bit rate : 30.8 Mb/s
Frame rate : 23.976 FPS
Movie name : May December (2023)
Encoded date : 2024-07-01 01:49:28 UTC
Writing application : mkvmerge v85.0 ('Shame For You') 64-bit
Writing library : libebml v1.4.5 + libmatroska v1.7.1
IMDB : tt13651794
TMDB : movie/839369

Video
ID : 1
Format : AVC
Format/Info : Advanced Video Codec: Format profile : High@L4.1
Format settings : CABAC / 4 Ref Frames
Format settings, CABAC : Yes
Format settings, Reference frames : 4 frames
Format settings, Slice count : 4 slices per frame
Codec ID : V_MPEG4/ISO/AVC
Duration : 1 h 57 min
Bit rate mode : Variable
Bit rate : 27.5 Mb/s
Maximum bit rate : 32.0 Mb/s
Width : 1 920 pixels
Height : 1 080 pixels
Display aspect ratio : 16:9
Frame rate mode : Constant
Frame rate : 23.976 (24000/1001) FPS
Color space : YUV
Chroma subsampling : 4:2:0
Bit depth : 8 bits
Scan type : Progressive
Bits/(Pixel*Frame) : 0.553
Time code of first frame : 00:00:00:00
Stream size : 22.5 GiB (89%)
Title : MPEG-4 AVC Video / 27997 kbps / 1080p / 23.976 fps / 16:9 / High Profile 4.1
Language : zxx
Default : Yes
Forced : No

Audio
ID : 2
Format : DTS XLL
Format/Info : Digital Theater Systems
Commercial name : DTS-HD Master Audio
Codec ID : A_DTS
Duration : 1 h 57 min
Bit rate mode : Variable
Bit rate : 3 272 kb/s
Channel(s) : 6 channels
Channel layout : C L R Ls Rs LFE
Sampling rate : 48.0 kHz
Frame rate : 93.750 FPS (512 SPF)
Bit depth : 24 bits
Compression mode : Lossless
Stream size : 2.68 GiB (11%)
Title : DTS-HD Master Audio / 5.1 / 48 kHz / 3272 kbps / 24-bit
Language : English
Default : Yes
Forced : No

Text #1
ID : 3
Format : PGS
Codec ID : S_HDMV/PGS
Codec ID/Info : Picture based subtitle format used on BDs/HD-DVDs
Duration : 1 h 55 min
Bit rate : 41.9 kb/s
Frame rate : 0.486 FPS
Count of elements : 3356
Stream size : 34.4 MiB (0%)
Title : SDH
Language : English
Default : No
Forced : No

Text #2
ID : 4
Format : UTF-8
Codec ID : S_TEXT/UTF8
Codec ID/Info : UTF-8 Plain Text
Duration : 1 h 48 min
Bit rate : 50 b/s
Frame rate : 0.162 FPS
Count of elements : 1054
Stream size : 40.3 KiB (0%)
Language : Dutch
Default : No
Forced : No

Text #3
ID : 5
Format : UTF-8
Codec ID : S_TEXT/UTF8
Codec ID/Info : UTF-8 Plain Text
Duration : 1 h 55 min
Bit rate : 50 b/s
Frame rate : 0.203 FPS
Count of elements : 1409
Stream size : 42.4 KiB (0%)
Language : Spanish
Default : No
Forced : No

Menu
00:00:00.000 : en:Chapter 01
00:10:33.007 : en:Chapter 02
00:23:19.148 : en:Chapter 03
00:38:04.908 : en:Chapter 04
00:50:25.272 : en:Chapter 05
01:02:46.304 : en:Chapter 06
01:15:14.051 : en:Chapter 07
01:27:27.409 : en:Chapter 08
01:39:48.399 : en:Chapter 09
01:52:36.708 : en:Chapter 10

Files