Hard Core Logo 1996 1080p BluRay Remux AVC AC-3 5 1

A group of washed-up Canadian punk rockers get back together for a road trip in memory of a dear friend who was supposedly shot, or so rumors imply. As they travel, they ignore the underlying psychological darkness within each other.

Year: 1996
Duration: 92 min
Release date: Friday 11th October 1996
Genre: Comedy, Drama, Music

Rating

7.2/10
(2779 Votes)

0

Your Rating

Stars:
Hugh Dillon, Callum Keith Rennie, John Pyper-Ferguson, Bernie Coulson, Julian Richings, Benita Ha, Claudia Ferri, Joey Ramone

General
Unique ID : 323850038264592128892122364458393156156 (0xF3A33FA575D2C4CE7E89A43B3C183A3C)
Complete name : Hard.Core.Logo.1996.1080p.BluRay.Remux.AVC.AC-3.5.1.mkv
Format : Matroska
Format version : Version 4
File size : 14.7 GiB
Duration : 1 h 32 min
Overall bit rate mode : Variable
Overall bit rate : 22.9 Mb/s
Movie name : Hard Core Logo [1996] BluRay Remux
Encoded date : UTC 2019-11-28 18:41:29
Writing application : mkvmerge v40.0.0 ('Old Town Road + Pony') 64-bit
Writing library : libebml v1.3.9 + libmatroska v1.5.2
Cover : Yes
Attachments : cover.jpg

Video
ID : 1
Format : AVC
Format/Info : Advanced Video Codec: Format profile : High@L4.1
Format settings : CABAC / 4 Ref Frames
Format settings, CABAC : Yes
Format settings, Reference frames : 4 frames
Codec ID : V_MPEG4/ISO/AVC
Duration : 1 h 32 min
Bit rate mode : Variable
Bit rate : 22.0 Mb/s
Maximum bit rate : 35.0 Mb/s
Width : 1 920 pixels
Height : 1 080 pixels
Display aspect ratio : 16:9
Frame rate mode : Constant
Frame rate : 29.970 (30000/1001) FPS
Standard : NTSC
Color space : YUV
Chroma subsampling : 4:2:0
Bit depth : 8 bits
Scan type : MBAFF
Bits/(Pixel*Frame) : 0.354
Stream size : 14.2 GiB (96%)
Default : Yes
Forced : No
Color range : Limited
Color primaries : BT.709
Transfer characteristics : BT.709
Matrix coefficients : BT.709

Audio #1
ID : 2
Format : AC-3
Format/Info : Audio Coding 3
Commercial name : Dolby Digital
Codec ID : A_AC3
Duration : 1 h 32 min
Bit rate mode : Constant
Bit rate : 640 kb/s
Channel(s) : 6 channels
Channel layout : L R C LFE Ls Rs
Sampling rate : 48.0 kHz
Frame rate : 31.250 FPS (1536 SPF)
Compression mode : Lossy
Stream size : 422 MiB (3%)
Language : English
Service kind : Complete Main
Default : Yes
Forced : No

Audio #2
ID : 3
Format : AC-3
Format/Info : Audio Coding 3
Commercial name : Dolby Digital
Codec ID : A_AC3
Duration : 1 h 32 min
Bit rate mode : Constant
Bit rate : 192 kb/s
Channel(s) : 2 channels
Channel layout : L R
Sampling rate : 48.0 kHz
Frame rate : 31.250 FPS (1536 SPF)
Compression mode : Lossy
Stream size : 127 MiB (1%)
Title : Commentary with Director Bruce McDonald, Actor Hugh Dillon, and Screenwriter Noel Baker
Language : English
Service kind : Complete Main
Default : No
Forced : No

Text
ID : 4
Format : PGS
Muxing mode : zlib
Codec ID : S_HDMV/PGS
Codec ID/Info : Picture based subtitle format used on BDs/HD-DVDs
Duration : 1 h 31 min
Bit rate : 63.8 kb/s
Count of elements : 3146
Stream size : 41.7 MiB (0%)
Language : English
Default : No
Forced : No

Menu
00:00:00.000 : en:Chapter 01
00:06:03.162 : en:Chapter 02
00:08:58.037 : en:Chapter 03
00:13:32.878 : en:Chapter 04
00:21:43.135 : en:Chapter 05
00:26:18.209 : en:Chapter 06
00:31:15.740 : en:Chapter 07
00:35:39.604 : en:Chapter 08
00:41:15.473 : en:Chapter 09
00:44:26.330 : en:Chapter 10
00:52:39.656 : en:Chapter 11
00:58:16.559 : en:Chapter 12
01:04:56.859 : en:Chapter 13
01:14:10.779 : en:Chapter 14
01:18:57.232 : en:Chapter 15
01:26:41.362 : en:Chapter 16

Files