The Perfection 2019 2160p WEB-DL DDP5 1 HEVC-NEOLUTiON

When troubled musical prodigy Charlotte (Allison Williams) seeks out Elizabeth (Logan Browning), the new star pupil of her former school, the encounter sends both musicians down a sinister...

Year: 2018
Duration: 90 min
Release date: Friday 24th May 2019
Genre: Drama, Horror, Thriller

Rating

6.1/10
(26190 Votes)

0

Your Rating

Stars:
Allison Williams, Alaina Huffman, Steven Weber, Logan Browning, Glynis Davies, Christina Jastrzembska, Winnie Hung, Milah Thompson

General
Unique ID : 232811159292965461169619244754827046835 (0xAF25CC5DD8AFABEC362E9EA284A16FB3)
Complete name : H:\PELIS\The.Perfection.2019.2160p.WEB-DL.DDP5.1.HEVC-NEOLUTiON\The.Perfection.2019.2160p.WEB-DL.DDP5.1.HEVC-NEOLUTiON.mkv
Format : Matroska
Format version : Version 4
File size : 10.2 GiB
Duration : 1 h 30 min
Overall bit rate : 16.2 Mb/s
Frame rate : 23.976 FPS
Encoded date : 2019-07-11 14:07:34 UTC
Writing application : mkvmerge v32.0.0 ('Astral Progressions') 32-bit
Writing library : libebml v1.3.7 + libmatroska v1.5.0

Video
ID : 1
Format : HEVC
Format/Info : High Efficiency Video Coding
Format profile : Main 10@L5@Main
Codec ID : V_MPEGH/ISO/HEVC
Duration : 1 h 30 min
Bit rate : 15.5 Mb/s
Width : 3 840 pixels
Height : 2 160 pixels
Display aspect ratio : 16:9
Frame rate mode : Constant
Frame rate : 23.976 (24000/1001) FPS
Color space : YUV
Chroma subsampling : 4:2:0
Bit depth : 10 bits
Bits/(Pixel*Frame) : 0.078
Stream size : 9.82 GiB (96%)
Default : Yes
Forced : No
Color range : Limited
Color primaries : BT.709
Transfer characteristics : BT.709
Matrix coefficients : BT.709

Audio
ID : 2
Format : E-AC-3
Format/Info : Enhanced AC-3
Commercial name : Dolby Digital Plus
Codec ID : A_EAC3
Duration : 1 h 30 min
Bit rate mode : Constant
Bit rate : 640 kb/s
Channel(s) : 6 channels
Channel layout : L R C LFE Ls Rs
Sampling rate : 48.0 kHz
Frame rate : 31.250 FPS (1536 SPF)
Compression mode : Lossy
Stream size : 415 MiB (4%)
Title : English
Language : English
Service kind : Complete Main
Default : Yes
Forced : No
Dialog Normalization : -31 dB
compr : -0.28 dB
dialnorm_Average : -31 dB
dialnorm_Minimum : -31 dB
dialnorm_Maximum : -31 dB

Text
ID : 3
Format : UTF-8
Codec ID : S_TEXT/UTF8
Codec ID/Info : UTF-8 Plain Text
Duration : 1 h 23 min
Bit rate : 54 b/s
Frame rate : 0.240 FPS
Count of elements : 1206
Stream size : 33.3 KiB (0%)
Title : English [SDH]
Language : English
Default : No
Forced : No

Files