South Park Bigger, Longer & Uncut (1999) (2160p BluRay REMUX HEVC DV HDR TrueHD 5 1 English-DarQ)

When the four boys see an R-rated movie featuring Canadians Terrance & Phillip, they are pronounced "e;corrupted"e;, and their parents pressure the United States to wage war against Canada.

Year: 1999
Duration: 81 min
Release date: Wednesday 30th June 1999
Genre: Animation, Comedy, Musical

Rating

7.8/10
(80418 Votes)

0

Your Rating

Stars:
Trey Parker, Matt Stone, Mary Kay Bergman, Isaac Hayes

South Park: Bigger, Longer & Uncut (1999)

General
Unique ID : 206517005517911036871560081112909478700 (0x9B5DBA7EA98AA5D7CA4D98258F1BFB2C)
Complete name : South Park Bigger, Longer & Uncut (1999) (2160p BluRay REMUX HEVC DV HDR TrueHD 5.1 English-DarQ).mkv
Format : Matroska
Format version : Version 2
File size : 53.3 GiB
Duration : 1 h 21 min
Overall bit rate mode : Variable
Overall bit rate : 94.0 Mb/s
Movie name : South Park: Bigger, Longer & Uncut
Encoded date : UTC 2024-06-24 08:27:36
Writing application : MakeMKV v1.17.6 win(x64-release)
Writing library : libmakemkv v1.17.6 (1.3.10/1.5.2) win(x64-release)

Video
ID : 1
ID in the original source medium : 4113 (0x1011)
Format : HEVC
Format/Info : High Efficiency Video Coding
Format profile : Main 10@L5.1@High
HDR format : Dolby Vision, Version 1.0, dvhe.07.06, BL+EL+RPU, Blu-ray compatible / SMPTE ST 2086, HDR10 compatible
Codec ID : V_MPEGH/ISO/HEVC
Duration : 1 h 21 min
Bit rate : 88.8 Mb/s
Width : 3 840 pixels
Height : 2 160 pixels
Display aspect ratio : 16:9
Frame rate mode : Constant
Frame rate : 23.976 (24000/1001) FPS
Color space : YUV
Chroma subsampling : 4:2:0 (Type 2)
Bit depth : 10 bits
Bits/(Pixel*Frame) : 0.446
Stream size : 50.4 GiB (94%)
Language : English
Default : No
Forced : No
Color range : Limited
Color primaries : BT.2020
Transfer characteristics : PQ
Matrix coefficients : BT.2020 non-constant
Mastering display color primaries : Display P3
Mastering display luminance : min: 0.0001 cd/m2, max: 1000 cd/m2
Maximum Content Light Level : 1000 cd/m2
Maximum Frame-Average Light Level : 256 cd/m2
Original source medium : Blu-ray

Audio #1
ID : 2
ID in the original source medium : 4352 (0x1100)
Format : MLP FBA
Format/Info : Meridian Lossless Packing FBA
Commercial name : Dolby TrueHD
Codec ID : A_TRUEHD
Duration : 1 h 21 min
Bit rate mode : Variable
Bit rate : 3 824 kb/s
Maximum bit rate : 4 764 kb/s
Channel(s) : 6 channels
Channel layout : L R C LFE Ls Rs
Sampling rate : 48.0 kHz
Frame rate : 1 200.000 FPS (40 SPF)
Bit depth : 24 bits
Compression mode : Lossless
Stream size : 2.17 GiB (4%)
Title : Surround 5.1
Language : English
Default : Yes
Forced : No
Original source medium : Blu-ray

Audio #2
ID : 3
ID in the original source medium : 4352 (0x1100)
Format : AC-3
Format/Info : Audio Coding 3
Commercial name : Dolby Digital
Codec ID : A_AC3
Duration : 1 h 21 min
Bit rate mode : Constant
Bit rate : 640 kb/s
Channel(s) : 6 channels
Channel layout : L R C LFE Ls Rs
Sampling rate : 48.0 kHz
Frame rate : 31.250 FPS (1536 SPF)
Compression mode : Lossy
Stream size : 372 MiB (1%)
Title : Surround 5.1
Language : English
Service kind : Complete Main
Default : No
Forced : No
Original source medium : Blu-ray

Audio #3
ID : 4
ID in the original source medium : 4353 (0x1101)
Format : AC-3
Format/Info : Audio Coding 3
Commercial name : Dolby Digital
Codec ID : A_AC3
Duration : 1 h 21 min
Bit rate mode : Constant
Bit rate : 640 kb/s
Channel(s) : 6 channels
Channel layout : L R C LFE Ls Rs
Sampling rate : 48.0 kHz
Frame rate : 31.250 FPS (1536 SPF)
Compression mode : Lossy
Stream size : 372 MiB (1%)
Title : Surround 5.1
Language : French
Service kind : Complete Main
Default : No
Forced : No
Original source medium : Blu-ray

Text #1
ID : 5
ID in the original source medium : 4768 (0x12A0)
Format : PGS
Codec ID : S_HDMV/PGS
Codec ID/Info : Picture based subtitle format used on BDs/HD-DVDs
Duration : 1 h 21 min
Bit rate : 75.1 kb/s
Count of elements : 3754
Stream size : 43.6 MiB (0%)
Language : English
Default : No
Forced : No
Original source medium : Blu-ray

Text #2
ID : 7
ID in the original source medium : 4769 (0x12A1)
Format : PGS
Codec ID : S_HDMV/PGS
Codec ID/Info : Picture based subtitle format used on BDs/HD-DVDs
Duration : 1 h 20 min
Bit rate : 60.2 kb/s
Count of elements : 3182
Stream size : 34.7 MiB (0%)
Language : French
Default : No
Forced : No
Original source medium : Blu-ray

Text #3
ID : 9
ID in the original source medium : 4770 (0x12A2)
Format : PGS
Codec ID : S_HDMV/PGS
Codec ID/Info : Picture based subtitle format used on BDs/HD-DVDs
Duration : 1 h 1 min
Bit rate : 2 118 b/s
Count of elements : 106
Stream size : 953 KiB (0%)
Language : French
Default : No
Forced : No
Original source medium : Blu-ray

Menu
00:00:00.000 : en:Chapter 01
00:04:13.795 : en:Chapter 02
00:07:18.729 : en:Chapter 03
00:08:53.699 : en:Chapter 04
00:12:55.274 : en:Chapter 05
00:14:47.011 : en:Chapter 06
00:17:15.909 : en:Chapter 07
00:20:09.541 : en:Chapter 08
00:21:37.838 : en:Chapter 09
00:28:50.353 : en:Chapter 10
00:30:00.381 : en:Chapter 11
00:32:41.751 : en:Chapter 12
00:34:06.753 : en:Chapter 13
00:36:11.711 : en:Chapter 14
00:38:03.155 : en:Chapter 15
00:42:00.809 : en:Chapter 16
00:44:46.975 : en:Chapter 17
00:51:21.036 : en:Chapter 18
00:52:25.934 : en:Chapter 19
00:54:11.373 : en:Chapter 20
00:56:21.586 : en:Chapter 21
01:01:13.878 : en:Chapter 22
01:03:14.457 : en:Chapter 23
01:07:01.809 : en:Chapter 24
01:13:35.744 : en:Chapter 25
01:16:33.589 : en:Chapter 26

Report created by : MediaInfoLib - v21.09

Files