Unpregnant 2020 2160p MA WEB-DL DDP5 1 DV HDR H 265-FLUX

A 17-year old Missouri teen named Veronica discovers she has gotten pregnant, a development that threatens to end her dreams of matriculating at an Ivy League college, and the career that will follow.

Year: 2020
Release date: Thursday 10th September 2020
Genre: Comedy, Drama

Rating

6.5/10
(8225 Votes)

0

Your Rating

Stars:
Sugar Lyn Beard, Giancarlo Esposito, Haley Lu Richardson, Mary McCormack, Breckin Meyer, Barbie Ferreira, Ramona Young, Kara Royster

General
Unique ID : 226054792853913623144105143383359383347 (0xAA1091C853180DCA9F3A084EC83E6733)
Complete name : Unpregnant.2020.2160p.MA.WEB-DL.DDP5.1.DV.HDR.H.265-FLUX.mkv
Format : Matroska
Format version : Version 4
File size : 18.2 GiB
Duration : 1 h 43 min
Overall bit rate : 25.1 Mb/s
Movie name : Unpregnant (2020)
Writing application : mkvmerge v83.0 ('Circle Of Friends') 64-bit
Writing library : libebml v1.4.5 + libmatroska v1.7.1

Video
ID : 1
Format : HEVC
Format/Info : High Efficiency Video Coding
Format profile : Main 10@L5@High
HDR format : Dolby Vision, Version 1.0, dvhe.08.06, BL+RPU, HDR10 compatible / SMPTE ST 2086, HDR10 compatible
Codec ID : V_MPEGH/ISO/HEVC
Duration : 1 h 43 min
Bit rate : 24.5 Mb/s
Width : 3 840 pixels
Height : 2 160 pixels
Display aspect ratio : 16:9
Frame rate mode : Constant
Frame rate : 23.976 (24000/1001) FPS
Color space : YUV
Chroma subsampling : 4:2:0 (Type 2)
Bit depth : 10 bits
Bits/(Pixel*Frame) : 0.123
Stream size : 17.7 GiB (97%)
Default : Yes
Forced : No
Color range : Limited
Color primaries : BT.2020
Transfer characteristics : PQ
Matrix coefficients : BT.2020 non-constant
Mastering display color primaries : Display P3
Mastering display luminance : min: 0.0001 cd/m2, max: 1000 cd/m2
Maximum Content Light Level : 190 cd/m2
Maximum Frame-Average Light Level : 74 cd/m2

Audio
ID : 2
Format : E-AC-3
Format/Info : Enhanced AC-3
Commercial name : Dolby Digital Plus
Codec ID : A_EAC3
Duration : 1 h 43 min
Bit rate mode : Constant
Bit rate : 640 kb/s
Channel(s) : 6 channels
Channel layout : L R C LFE Ls Rs
Sampling rate : 48.0 kHz
Frame rate : 31.250 FPS (1536 SPF)
Compression mode : Lossy
Delay relative to video : 83 ms
Stream size : 474 MiB (3%)
Language : English
Service kind : Complete Main
Default : Yes
Forced : No

Text #1
ID : 3
Format : UTF-8
Codec ID : S_TEXT/UTF8
Codec ID/Info : UTF-8 Plain Text
Duration : 1 h 39 min
Bit rate : 77 b/s
Count of elements : 1673
Stream size : 56.3 KiB (0%)
Language : English
Default : No
Forced : No

Text #2
ID : 4
Format : UTF-8
Codec ID : S_TEXT/UTF8
Codec ID/Info : UTF-8 Plain Text
Duration : 1 h 39 min
Bit rate : 85 b/s
Count of elements : 1840
Stream size : 62.5 KiB (0%)
Title : SDH
Language : English
Default : No
Forced : No

Text #3
ID : 5
Format : UTF-8
Codec ID : S_TEXT/UTF8
Codec ID/Info : UTF-8 Plain Text
Duration : 1 h 38 min
Bit rate : 54 b/s
Count of elements : 1052
Stream size : 39.5 KiB (0%)
Language : Danish
Default : No
Forced : No

Text #4
ID : 6
Format : UTF-8
Codec ID : S_TEXT/UTF8
Codec ID/Info : UTF-8 Plain Text
Duration : 1 h 42 min
Bit rate : 68 b/s
Count of elements : 1302
Stream size : 51.4 KiB (0%)
Language : German
Default : No
Forced : No

Text #5
ID : 7
Format : UTF-8
Codec ID : S_TEXT/UTF8
Codec ID/Info : UTF-8 Plain Text
Duration : 1 h 43 min
Bit rate : 74 b/s
Count of elements : 1423
Stream size : 56.3 KiB (0%)
Title : SDH
Language : German
Default : No
Forced : No

Text #6
ID : 8
Format : UTF-8
Codec ID : S_TEXT/UTF8
Codec ID/Info : UTF-8 Plain Text
Duration : 1 h 42 min
Bit rate : 64 b/s
Count of elements : 1477
Stream size : 48.2 KiB (0%)
Title : Latin American
Language : Spanish
Default : No
Forced : No

Text #7
ID : 9
Format : UTF-8
Codec ID : S_TEXT/UTF8
Codec ID/Info : UTF-8 Plain Text
Duration : 1 h 37 min
Bit rate : 58 b/s
Count of elements : 1104
Stream size : 42.1 KiB (0%)
Language : Spanish
Default : No
Forced : No

Text #8
ID : 10
Format : UTF-8
Codec ID : S_TEXT/UTF8
Codec ID/Info : UTF-8 Plain Text
Duration : 1 h 37 min
Bit rate : 59 b/s
Count of elements : 1017
Stream size : 42.7 KiB (0%)
Language : Finnish
Default : No
Forced : No

Text #9
ID : 11
Format : UTF-8
Codec ID : S_TEXT/UTF8
Codec ID/Info : UTF-8 Plain Text
Duration : 1 h 42 min
Bit rate : 65 b/s
Count of elements : 1387
Stream size : 49.2 KiB (0%)
Language : French
Default : No
Forced : No

Text #10
ID : 12
Format : UTF-8
Codec ID : S_TEXT/UTF8
Codec ID/Info : UTF-8 Plain Text
Duration : 1 h 37 min
Bit rate : 69 b/s
Count of elements : 1263
Stream size : 50.2 KiB (0%)
Language : Indonesian
Default : No
Forced : No

Text #11
ID : 13
Format : UTF-8
Codec ID : S_TEXT/UTF8
Codec ID/Info : UTF-8 Plain Text
Duration : 1 h 37 min
Bit rate : 57 b/s
Count of elements : 1130
Stream size : 41.0 KiB (0%)
Language : Norwegian
Default : No
Forced : No

Text #12
ID : 14
Format : UTF-8
Codec ID : S_TEXT/UTF8
Codec ID/Info : UTF-8 Plain Text
Duration : 1 h 37 min
Bit rate : 67 b/s
Count of elements : 1362
Stream size : 48.0 KiB (0%)
Language : Dutch
Default : No
Forced : No

Text #13
ID : 15
Format : UTF-8
Codec ID : S_TEXT/UTF8
Codec ID/Info : UTF-8 Plain Text
Duration : 1 h 42 min
Bit rate : 63 b/s
Count of elements : 1478
Stream size : 48.0 KiB (0%)
Title : Brazilian
Language : Portuguese
Default : No
Forced : No

Text #14
ID : 16
Format : UTF-8
Codec ID : S_TEXT/UTF8
Codec ID/Info : UTF-8 Plain Text
Duration : 1 h 37 min
Bit rate : 60 b/s
Count of elements : 1195
Stream size : 43.3 KiB (0%)
Language : Portuguese
Default : No
Forced : No

Text #15
ID : 17
Format : UTF-8
Codec ID : S_TEXT/UTF8
Codec ID/Info : UTF-8 Plain Text
Duration : 1 h 38 min
Bit rate : 58 b/s
Count of elements : 1064
Stream size : 42.0 KiB (0%)
Language : Swedish
Default : No
Forced : No

Text #16
ID : 18
Format : UTF-8
Codec ID : S_TEXT/UTF8
Codec ID/Info : UTF-8 Plain Text
Duration : 1 h 37 min
Bit rate : 154 b/s
Count of elements : 1307
Stream size : 111 KiB (0%)
Language : Thai
Default : No
Forced : No

Text #17
ID : 19
Format : UTF-8
Codec ID : S_TEXT/UTF8
Codec ID/Info : UTF-8 Plain Text
Duration : 1 h 37 min
Bit rate : 53 b/s
Count of elements : 1473
Stream size : 38.5 KiB (0%)
Title : Simplified
Language : Chinese
Default : No
Forced : No

Text #18
ID : 20
Format : UTF-8
Codec ID : S_TEXT/UTF8
Codec ID/Info : UTF-8 Plain Text
Duration : 1 h 37 min
Bit rate : 53 b/s
Count of elements : 1473
Stream size : 38.5 KiB (0%)
Title : Traditional
Language : Chinese
Default : No
Forced : No

Menu
00:00:00.000 : en:Chapter 1
00:05:31.000 : en:Chapter 2
00:14:32.000 : en:Chapter 3
00:20:04.000 : en:Chapter 4
00:26:20.000 : en:Chapter 5
00:33:05.000 : en:Chapter 6
00:41:15.000 : en:Chapter 7
00:45:53.000 : en:Chapter 8
00:53:56.000 : en:Chapter 9
00:58:15.000 : en:Chapter 10
01:04:44.000 : en:Chapter 11
01:08:37.000 : en:Chapter 12
01:13:48.000 : en:Chapter 13
01:18:42.000 : en:Chapter 14
01:26:46.000 : en:Chapter 15
01:33:32.000 : en:Chapter 16

Files